<?xml version="1.0" standalone="no"?>
<!DOCTYPE svg PUBLIC "-//W3C//DTD SVG 1.1//EN" "http://www.w3.org/Graphics/SVG/1.1/DTD/svg11.dtd" >
<svg xmlns="http://www.w3.org/2000/svg" xmlns:xlink="http://www.w3.org/1999/xlink" version="1.1">
<metadata>
Created by FontForge 20200314 at Mon Jun  6 17:42:48 2011
 By Unknown
Font software Copyright 1992 Adobe Systems Incorporated. Typeface designs Copyright 1992 The Monotype Corporation. All rights reserved.
</metadata>
<defs>
<font id="ForteW01" horiz-adv-x="333" >
  <font-face 
    font-family="ForteW01"
    font-weight="400"
    font-stretch="normal"
    units-per-em="1000"
    panose-1="2 1 8 2 1 1 1 2 1 1"
    ascent="718"
    descent="-282"
    x-height="467"
    cap-height="678"
    bbox="-29 -264 1265 915"
    underline-thickness="50"
    underline-position="-150"
    unicode-range="U+0020-2122"
  />
<missing-glyph horiz-adv-x="245" 
 />
    <glyph glyph-name=".notdef" horiz-adv-x="245" 
 />
    <glyph glyph-name=".null" horiz-adv-x="0" 
 />
    <glyph glyph-name="nonmarkingreturn" 
 />
    <glyph glyph-name="space" unicode=" " horiz-adv-x="245" 
 />
    <glyph glyph-name="exclam" unicode="!" horiz-adv-x="365" 
d="M97 180q-17 0 -24.5 10t-7.5 22q0 9 5.5 35t14.5 60.5t20 74t22 76t21 65.5t17 43q13 28 37 43t48 22t42 8l18 1q19 0 26.5 -7t7.5 -15q0 -9 -9 -37t-23 -66t-30.5 -81t-32 -81t-28 -66t-17.5 -37q-8 -15 -22.5 -27.5t-30.5 -22t-30.5 -15t-23.5 -5.5zM64 -2
q-22 0 -32 11.5t-10 23.5q0 5 4.5 26t18 44.5t38 42t63.5 18.5q18 0 30 -8.5t12 -20.5q0 -11 -4 -27t-10.5 -31.5t-16.5 -29.5t-22 -22q-11 -8 -33 -17.5t-38 -9.5z" />
    <glyph glyph-name="quotedbl" unicode="&#x22;" horiz-adv-x="354" 
d="M272 553l25 119h101l-26 -119l-52 -134h-54zM110 553l25 119h101l-26 -119l-52 -134h-54z" />
    <glyph glyph-name="numbersign" unicode="#" horiz-adv-x="667" 
d="M189 497l40 187h93l-41 -187h173l40 187h92l-40 -187h83v-93h-100l-31 -147h131v-93h-149l-40 -185h-93l41 185h-175l-39 -185h-92l39 185h-83v93h102l31 147h-133v93h151zM263 404l-31 -146h174l30 146h-173z" />
    <glyph glyph-name="dollar" unicode="$" horiz-adv-x="542" 
d="M371 380q19 -18 38.5 -37t35.5 -41.5t26 -49t10 -58.5q0 -60 -33.5 -107t-89.5 -76q-31 -17 -61 -23.5t-59 -10.5q-21 -56 -30 -74.5t-15 -18.5q-7 0 -7 10q0 5 2.5 16.5t5.5 24.5t6.5 25.5t5.5 18.5l-49 10q-5 -17 -12 -35.5t-14 -33.5t-12.5 -25t-8.5 -10
q-4 0 -6.5 3.5t-2.5 8.5q0 3 0.5 6t1.5 9.5t3.5 17t7.5 28.5l12 44q-13 6 -30.5 14.5t-33 18.5t-26 20t-10.5 19q0 14 11.5 32t28 33.5t33.5 26.5t28 11q9 0 17.5 -7.5t16.5 -17.5l8 -9l45 138q-20 15 -43.5 34.5t-44 43t-34.5 51.5t-14 60q0 26 12 63.5t42.5 71.5t82.5 56
t132 18q8 16 20.5 19t16.5 3q2 0 4.5 -1t2.5 -8q0 -4 -0.5 -7t-2.5 -9l40 -13q4 10 12.5 24.5t26.5 14.5q11 0 11 -11q0 -8 -3 -17.5t-11 -27.5q8 -5 19 -12t21 -17t17 -23t7 -29q0 -17 -6 -34.5t-16 -31.5t-21.5 -22.5t-23.5 -8.5q-16 0 -26 14t-19 31zM323 600
q-6 1 -9.5 1.5t-8.5 0.5q-15 0 -24 -7t-13.5 -17t-6 -20.5t-1.5 -16.5q0 -25 8 -40.5t14 -24.5zM275 88q10 -3 17 -5t14 -2q9 0 14.5 6.5t5.5 27.5q0 24 -5.5 40.5t-13.5 33.5zM392 553q-14 14 -20 20.5t-14 11.5l-50 -143l30 -31zM247 255l-46 -133l39 -23l39 125z" />
    <glyph glyph-name="percent" unicode="%" horiz-adv-x="854" 
d="M773 310l4.5 1.5t3.5 0.5q11 0 22 -11t20 -27.5t14.5 -36.5t5.5 -39q0 -45 -13 -88.5t-31.5 -80t-39 -63.5t-35.5 -40q-28 -25 -55 -32t-41 -7q-27 0 -48.5 11.5t-37.5 30.5t-24.5 44t-8.5 52q0 45 14.5 97.5t43.5 97.5t71.5 75.5t98.5 30.5q14 0 21 -4t15 -12zM744 300
q-19 -4 -28.5 -10.5t-12.5 -9.5q-20 -20 -35 -47t-25 -56t-15.5 -56t-5.5 -46q0 -23 5.5 -45t14 -39.5t19 -28.5t20.5 -11q12 0 25.5 20t24.5 50.5t18 66.5t7 68t-8 58t-28 46q-1 2 -3 4t-2 4q0 4 4.5 8.5t24.5 23.5zM288 691l4.5 1.5t3.5 0.5q11 0 22 -11t20 -27.5
t14.5 -36.5t5.5 -39q0 -45 -13 -88.5t-31.5 -80t-39 -63.5t-35.5 -40q-28 -25 -55 -32t-41 -7q-27 0 -48.5 11.5t-37.5 30.5t-24.5 44t-8.5 52q0 45 14.5 97.5t43.5 97.5t71.5 75.5t98.5 30.5q14 0 21 -4t15 -12zM259 681q-19 -4 -28.5 -10.5t-12.5 -9.5q-20 -20 -35 -47
t-25 -56t-15.5 -56t-5.5 -46q0 -23 5.5 -45t14 -39.5t19 -28.5t20.5 -11q12 0 25.5 20t24.5 50.5t18 66.5t7 68t-8 58t-28 46q-1 2 -3 4t-2 4q0 4 4.5 8.5t24.5 23.5zM355 303q43 68 87 133.5t90 131.5q11 16 26 35.5t31 38.5t32 34t30 22q5 2 12 4.5t16 2.5q19 0 36 -16.5
t17 -42.5q0 -8 -1 -17t-8.5 -24.5t-23.5 -41.5t-46 -68l-51 -73q-16 -23 -43 -61t-63.5 -87.5t-81 -107.5t-93.5 -119q-13 -16 -27 -32t-28 -28.5t-28.5 -20.5t-27.5 -8q-14 0 -25.5 10t-11.5 22q0 5 3 14.5t15 31.5q11 20 41 70t72 116z" />
    <glyph glyph-name="ampersand" unicode="&#x26;" horiz-adv-x="573" 
d="M324 333q8 -18 17 -33.5t21.5 -31.5t30 -34t42.5 -40q7 3 9.5 4.5t7.5 6.5q3 3 5 3q3 0 6.5 -3t3.5 -7q0 -2 -5 -10t-7 -10q12 -8 32 -22.5t37 -23.5l13 -7q3 -2 12 -7.5t9 -11.5q0 -10 -8 -28t-23.5 -35.5t-38.5 -30.5t-52 -13q-34 0 -58 16t-48 39l-25 -15
q-28 -15 -49.5 -25t-39 -16t-32.5 -8t-30 -2q-59 0 -93.5 32t-34.5 81q0 14 3.5 30t14 35.5t30.5 44t53 54.5q3 3 10.5 9.5t15.5 13.5t15 13.5t10 8.5q-4 19 -8.5 47t-4.5 59q0 51 16.5 97.5t45.5 82t68.5 56.5t85.5 21q27 0 50.5 -7.5t41 -22t28 -35t10.5 -46.5
q0 -30 -14 -57.5t-36 -52.5t-49 -48t-54 -44zM295 411q9 9 21.5 22.5t23.5 33.5t19 47t8 63q0 20 -4.5 26.5t-11.5 6.5q-13 0 -25 -11t-21.5 -29.5t-15 -43t-5.5 -51.5q0 -18 2.5 -31t8.5 -33zM210 227q-12 -16 -21.5 -33t-9.5 -41q0 -32 18 -49.5t46 -17.5q15 0 25.5 5
t20.5 10q-15 19 -26 36.5t-16 26.5z" />
    <glyph glyph-name="quotesingle" unicode="'" horiz-adv-x="188" 
d="M110 553l25 119h101l-26 -119l-52 -134h-54z" />
    <glyph glyph-name="parenleft" unicode="(" horiz-adv-x="344" 
d="M243 504q-35 -60 -50.5 -127t-15.5 -136q0 -17 2 -42.5t11 -51.5t26.5 -49t49.5 -36q20 -9 24.5 -11.5t4.5 -6.5q0 -9 -8 -17t-22 -14.5t-32 -10.5t-38 -4q-57 0 -91 26t-52 61t-23.5 70t-5.5 53q0 70 17.5 132t45.5 114t61.5 93t66 69.5t59 43.5t39.5 15q8 0 16.5 -3.5
t8.5 -8.5q0 -3 -3 -9t-6.5 -12t-7 -10.5t-3.5 -5.5q-12 -18 -19.5 -29.5t-15 -23.5t-16.5 -28t-23 -41z" />
    <glyph glyph-name="parenright" unicode=")" horiz-adv-x="323" 
d="M70 577q-5 3 -10.5 7.5t-5.5 12.5q0 10 9 23.5t23 26t32 21.5t36 9q19 0 45.5 -13t50.5 -42.5t41 -76.5t17 -116q0 -63 -13.5 -116t-37.5 -99t-56 -85.5t-69 -74.5q-20 -18 -45.5 -37.5t-48.5 -19.5q-5 0 -10.5 4t-5.5 12q0 4 1 7.5t5 9t11.5 15t20.5 25.5
q21 25 41.5 58.5t37.5 72.5t27.5 83t10.5 91q0 13 -1 30.5t-6.5 37.5t-15.5 42.5t-28 45.5q-14 18 -29.5 29t-26.5 17z" />
    <glyph glyph-name="asterisk" unicode="*" 
d="M125 563q-5 6 -12.5 14.5t-14.5 17.5t-12 17.5t-5 13.5q0 9 11 19t25 17.5t27.5 12.5t19.5 5q9 0 17 -7t14 -16.5t10 -20t7 -16.5l10 10q14 14 31.5 29.5t31.5 15.5q11 0 20.5 -8.5t9.5 -21.5q0 -4 -1 -8.5t-6 -12t-15.5 -19.5t-28.5 -30l-12 -12q8 -8 13.5 -13t11.5 -10
t13.5 -10.5t18.5 -14.5q8 -6 10.5 -10t2.5 -8q0 -6 -8 -12t-31 -6q-8 0 -16 1t-17 4t-21 8.5t-28 14.5l-13 7q-22 -11 -36.5 -16t-32.5 -5q-27 0 -47.5 11t-20.5 23q0 5 3.5 9.5t14.5 4.5q21 0 33 1.5t33 10.5z" />
    <glyph glyph-name="plus" unicode="+" horiz-adv-x="667" 
d="M281 383v220h105v-220h220v-105h-220v-220h-105v220h-220v105h220z" />
    <glyph glyph-name="comma" unicode="," horiz-adv-x="219" 
d="M53 -87q-17 0 -23.5 10.5t-6.5 19.5q0 23 7.5 49.5t18.5 51.5t23 46t22 32q14 14 28.5 20t37.5 6q4 0 12 -0.5t16 -3t13.5 -8t5.5 -15.5q0 -12 -11.5 -46t-31.5 -70t-48.5 -64t-62.5 -28z" />
    <glyph glyph-name="hyphen" unicode="-" horiz-adv-x="250" 
d="M84 152q-26 0 -42.5 14.5t-16.5 34.5q0 16 7 37.5t18 32.5q14 14 41 17.5t52 3.5q33 0 52 -3.5t29 -9.5t12.5 -13.5t2.5 -15.5q0 -18 -6 -30t-13.5 -20t-15.5 -12l-12 -6q-9 -4 -23 -9.5t-29.5 -10t-30.5 -7.5t-25 -3z" />
    <glyph glyph-name="period" unicode="." horiz-adv-x="198" 
d="M66 -1q-3 0 -10.5 0.5t-15 3.5t-13 8.5t-5.5 15.5q0 11 3.5 24.5t8 26.5t10 24t10.5 17q7 10 19 18.5t26 14.5t29 9t28 3q17 0 24 -10.5t7 -21.5q0 -6 -2.5 -22.5t-8 -34.5t-13.5 -34t-19 -22q-8 -4 -18.5 -7.5t-21.5 -6.5t-21 -4.5t-17 -1.5z" />
    <glyph glyph-name="slash" unicode="/" horiz-adv-x="469" 
d="M230 498q12 29 29.5 65.5t38.5 68.5t46 53.5t52 21.5t42.5 -19.5t15.5 -40.5q0 -12 -5.5 -32t-15.5 -45.5t-23 -55t-29 -59.5l-105 -209q-7 -12 -19.5 -36.5t-29 -54.5t-34.5 -62t-34.5 -60t-31 -49t-22.5 -29q-22 -19 -46 -19q-16 0 -26 9.5t-10 22.5q0 9 6.5 29.5
t17 48t23 58.5t24.5 60z" />
    <glyph glyph-name="zero" unicode="0" horiz-adv-x="531" 
d="M411 628q11 -1 20 -2.5t21 -9.5q13 -9 25 -25t21.5 -36.5t15 -44.5t5.5 -48q0 -47 -11.5 -99.5t-32.5 -104t-50.5 -98.5t-64.5 -83t-75.5 -57t-83.5 -21q-39 0 -71.5 15.5t-56 43.5t-36 68t-12.5 89q0 82 26.5 160t71 138.5t103 97.5t122.5 37q24 0 37 -6t26 -14z
M375 612q-18 -4 -32.5 -9.5t-30.5 -20.5q-24 -23 -45.5 -56.5t-38 -74t-26.5 -84.5t-10 -87q0 -36 8.5 -69.5t21.5 -59t29 -41t30 -15.5q19 0 38 31t34.5 76t25 96.5t9.5 92.5q0 49 -13.5 90t-37.5 67l-6 6q-6 6 -6 7q0 4 6.5 11t14.5 14.5t16.5 14.5t12.5 11z" />
    <glyph glyph-name="one" unicode="1" horiz-adv-x="375" 
d="M139 452q-3 -2 -12 -5t-17 -3q-11 0 -15.5 10.5t-4.5 20.5q0 2 0.5 10t3.5 18t9 19.5t17 15.5q15 8 36.5 18.5t43 20.5t39.5 18.5t27 12.5q31 14 44 19.5t25 5.5t18.5 -5t9.5 -12t3.5 -13t0.5 -9q0 -10 -1 -18t-5 -23t-12.5 -41t-23.5 -72q-11 -30 -18 -51t-15 -47.5
t-19 -66.5t-30 -108q-11 -41 -23 -72t-27 -48q-21 -23 -50 -36t-52 -13q-28 0 -48.5 14.5t-20.5 32.5q0 6 14 47t36 101t49.5 132.5t54.5 141.5z" />
    <glyph glyph-name="two" unicode="2" horiz-adv-x="448" 
d="M387 91q-21 -35 -48 -54t-54.5 -28t-51.5 -10.5t-37 -1.5q-36 0 -67 5t-54 14t-36 20.5t-13 24.5t13.5 30.5t24.5 30.5l20 23q12 13 28.5 34.5t35 46t36 50.5t30.5 49q26 48 31.5 84t5.5 55q0 22 -3.5 36.5t-9.5 24t-15 16.5t-20 13q-14 -22 -24 -49t-10 -75
q0 -11 1.5 -24t6.5 -30q3 -12 4 -15.5t1 -6.5q0 -4 -2.5 -9t-10.5 -5q-12 0 -33 8.5t-36 21.5q-12 10 -19.5 23t-11.5 26t-5 24.5t-1 19.5q0 39 16.5 72.5t44 58t63.5 38t75 13.5q37 0 67.5 -11.5t51.5 -31t32.5 -44.5t11.5 -51q0 -25 -7.5 -53.5t-30 -69t-64 -96
t-109.5 -133.5q15 -4 25.5 -5t30.5 -1q15 0 43 1.5t60 6.5q2 0 9 1.5t14 3.5q8 2 17 5q3 0 6.5 -2.5t3.5 -6.5q0 -3 -2.5 -8.5t-5.5 -10.5z" />
    <glyph glyph-name="three" unicode="3" horiz-adv-x="531" 
d="M143 72q5 -8 12 -8q14 0 39.5 16.5t50 43t42.5 60t18 68.5q0 23 -8.5 37.5t-20 23.5t-24.5 13t-22 6q-21 4 -21 16q0 7 5 13.5t26 26.5q10 10 22 23.5t21.5 30.5t16 37t6.5 43q0 4 -0.5 10.5t-2 12.5t-4.5 10t-8 4q-6 0 -17.5 -7t-25 -23.5t-28 -43.5t-27.5 -67
q-2 -5 -4.5 -9t-7.5 -4q-8 0 -19 7.5t-21.5 19.5t-18 27t-7.5 31q0 30 17.5 58.5t47 51t68 36t80.5 13.5q30 0 56 -9t46 -25.5t31.5 -40t11.5 -52.5q0 -31 -12.5 -53.5t-32 -39t-42 -28t-42.5 -20.5q21 -2 44 -6t44 -15q26 -14 38 -36.5t12 -43.5q0 -29 -14.5 -62.5
t-39.5 -66.5t-58.5 -64t-72 -55t-80 -38t-81.5 -14q-31 0 -57 10.5t-45 28.5t-29.5 41.5t-10.5 50.5q0 33 16.5 64.5t42.5 55.5t58.5 38.5t65.5 14.5q5 0 12 -2t7 -10q0 -5 -3 -8.5t-15 -14.5q-15 -14 -24 -32.5t-13.5 -37t-6 -34t-1.5 -22.5q0 -20 3.5 -31.5t6.5 -19.5z
" />
    <glyph glyph-name="four" unicode="4" horiz-adv-x="490" 
d="M267 355q7 19 16 39.5t26 38t44 28.5t69 11q38 0 38 -19q0 -12 -7.5 -34l-22.5 -66q4 0 17.5 1.5t17.5 1.5q2 0 6.5 -1t4.5 -5q0 -1 -7 -15t-18.5 -31t-26 -33t-29.5 -20q-10 -30 -23.5 -76t-22.5 -91l-5 -20t-6 -14t-11 -11t-19 -11q-21 -11 -47 -20.5t-49 -9.5
q-25 0 -40 9.5t-15 23.5q0 11 7 35t17.5 53.5t23.5 60.5t24 56h-14h-12t-14 -1t-21 -2q-8 -1 -26 -2.5t-43 -1.5q-39 0 -53 7.5t-14 27.5q0 10 2 20.5t6.5 24t12 31.5t17.5 43q3 8 11 28.5t17 43t17.5 42t11.5 26.5q9 19 17.5 34t18 26.5t22 21t30.5 18.5q19 10 38.5 14.5
t36.5 4.5q11 0 23 -3.5t12 -13.5q0 -8 -8.5 -25t-20 -36t-24 -37.5t-19.5 -28.5q-23 -32 -36.5 -50.5t-22.5 -33t-17.5 -28.5t-22.5 -37z" />
    <glyph glyph-name="five" unicode="5" horiz-adv-x="490" 
d="M147 359q-18 -3 -22 -3q-12 0 -22 9t-10 24q0 11 7 34.5t15.5 48t16.5 45t10 25.5q14 36 22.5 56.5t16.5 30t17.5 11.5t26.5 2h46.5t58 -1t56.5 -2t43 -4q7 -2 16 -4.5t9 -10.5q0 -11 -13.5 -30t-35.5 -38t-49.5 -33t-55.5 -14q-11 0 -22.5 1.5t-25.5 3.5l-37 -66
q29 11 56.5 19t60.5 8q71 0 105.5 -33t34.5 -83q0 -42 -15.5 -85t-40.5 -83t-57.5 -74.5t-67 -60t-68 -40t-60.5 -14.5q-4 0 -26 3t-46.5 17.5t-44 43.5t-19.5 81q0 62 23 100t52 59t57 28.5t37 7.5q18 0 21 -6t3 -10q-11 -13 -23.5 -30.5t-23 -41.5t-18 -56t-7.5 -75
q0 -50 19 -50q21 0 45.5 20.5t45 51.5t34 68t13.5 70q0 37 -18 63.5t-67 26.5q-14 0 -29.5 -2.5t-28.5 -4.5z" />
    <glyph glyph-name="six" unicode="6" horiz-adv-x="510" 
d="M243 430q34 20 60 31.5t55 11.5q27 0 49.5 -10.5t38.5 -28t24.5 -41t8.5 -49.5q0 -46 -18.5 -105.5t-56 -112.5t-95.5 -89.5t-137 -36.5q-36 0 -68.5 8.5t-57 26t-39 45t-14.5 65.5q0 25 5 54t18.5 67t38 86.5t62.5 112.5q13 21 30 49.5t35.5 55t36 46t30.5 24.5
q17 6 45 9t52 3q7 0 17 -1t19 -4t15.5 -9t6.5 -16q0 -12 -9 -22.5t-35 -35.5q-12 -12 -27.5 -29.5t-32 -36.5t-32 -37t-25.5 -31zM222 379q-15 0 -29 -11.5t-25.5 -30.5t-18.5 -43.5t-7 -49.5q0 -30 9 -56.5t25 -47t37 -32.5t44 -12q2 0 10.5 1t14.5 8q9 11 16 28t11.5 36.5
t7 39.5t2.5 37q0 60 -25.5 96.5t-71.5 36.5z" />
    <glyph glyph-name="seven" unicode="7" horiz-adv-x="469" 
d="M156 513q-21 -8 -42.5 -13.5t-38.5 -5.5q-26 0 -26 20q0 19 14 48.5t33 52.5q15 19 27.5 23t32.5 4q6 0 30 -0.5t52.5 -1.5t52.5 -2t30 -1q14 -1 31 -3t33.5 -4.5t30 -6.5t20.5 -8q4 -3 7 -7.5t3 -12.5q0 -5 -2.5 -14.5t-15.5 -36.5l-87 -187h25q33 1 40.5 -0.5t7.5 -5.5
q0 -7 -4 -18t-12 -22.5t-19.5 -23t-25.5 -19.5q-17 -10 -33 -14.5t-30 -8.5l-70 -171q-6 -14 -9 -20t-8 -11q-22 -20 -58 -31.5t-67 -11.5q-19 0 -34 7.5t-15 21.5q0 11 10.5 31.5t21.5 41.5l70 125q-9 -1 -20 -1.5t-21.5 2t-17.5 8.5t-7 19q0 9 5.5 24.5t13 30.5t16 26.5
t13.5 13.5q4 1 16 2t25 2t24.5 1.5t15.5 0.5l90 188q-22 2 -46 -4.5t-49 -14.5z" />
    <glyph glyph-name="eight" unicode="8" horiz-adv-x="490" 
d="M355 358q31 -32 54.5 -66t23.5 -80q0 -41 -21.5 -80.5t-57.5 -71t-82.5 -51t-96.5 -19.5q-29 0 -55.5 8.5t-46.5 25t-32.5 40t-12.5 54.5q0 29 10 51.5t30.5 43.5t50.5 42.5t71 49.5q-20 18 -37.5 36.5t-30.5 38.5t-21 42t-8 48q0 36 16 67t44 54.5t65.5 37t80.5 13.5
q21 0 40 -4.5t19 -15.5q0 -5 -4.5 -6.5t-10.5 -2.5q-18 -4 -33.5 -14t-30.5 -42q-8 -15 -13.5 -34.5t-5.5 -39.5q0 -17 4.5 -30t10.5 -22.5t12.5 -16t11.5 -10.5l17.5 20t20 28t16 34.5t6.5 39.5q0 15 -5 25t-9 15q-6 7 -6 9q0 4 6 10t16 11.5t23 9.5t26 4q24 0 44.5 -17.5
t20.5 -56.5q0 -51 -33 -91.5t-87 -86.5zM246 262q-8 -8 -19 -20.5t-21.5 -30.5t-17.5 -42t-7 -55q0 -33 9 -49.5t20 -16.5q13 0 27.5 13.5t25.5 34t18.5 43.5t7.5 42q0 52 -43 81z" />
    <glyph glyph-name="nine" unicode="9" horiz-adv-x="490" 
d="M270 304q-20 -12 -36.5 -21.5t-31.5 -15.5t-29.5 -9t-30.5 -3q-32 0 -54.5 11t-37 29t-21.5 41t-7 48q0 49 23.5 96t62 84t88 59.5t101.5 22.5q39 0 72.5 -16t57.5 -44t38 -65t14 -79q0 -56 -18 -111t-49 -104.5t-71.5 -91.5t-86.5 -72.5t-93.5 -48t-91.5 -17.5
q-13 0 -20.5 3t-7.5 12q0 8 5.5 11.5t15.5 8.5q11 5 27 14.5t35 26t40.5 41.5t45.5 63q22 35 35.5 66.5t24.5 60.5zM280 331q4 10 10.5 29t13 42.5t11 51t4.5 56.5q0 43 -12 63.5t-27 20.5q-14 0 -31 -13.5t-32 -35t-25 -49.5t-10 -57q0 -32 12 -52t28 -32t32.5 -17t25.5 -7
z" />
    <glyph glyph-name="colon" unicode=":" horiz-adv-x="292" 
d="M21 38q0 9 3.5 23.5t10 29.5t15.5 29t20 22q9 6 24 11t32 5q21 0 41.5 -9t20.5 -29t-10.5 -42t-27.5 -40t-38 -29.5t-43 -11.5q-20 0 -34 11t-14 30zM159 282q-23 0 -37.5 14.5t-14.5 31.5q0 12 4 26t10 26.5t12.5 23t11.5 15.5q17 16 40.5 24t46.5 8q5 0 12.5 -0.5
t14 -3t11.5 -7.5t5 -14q0 -10 -4.5 -27.5t-12 -35.5t-17 -34t-19.5 -23q-15 -12 -32.5 -18t-30.5 -6z" />
    <glyph glyph-name="semicolon" unicode=";" horiz-adv-x="292" 
d="M159 303q-20 0 -27.5 9.5t-7.5 18.5q0 10 4 24.5t10 28t12.5 24.5t10.5 16q13 14 35 21t42 7q31 0 41 -16t10 -35q0 -26 -8.5 -42t-20 -25.5t-23.5 -14t-20 -6.5q-12 -3 -30 -6.5t-28 -3.5zM64 -101q-23 0 -35.5 13.5t-12.5 33.5q0 19 6.5 42.5t16.5 47.5t21.5 46
t22.5 36q11 15 22 22.5t20.5 11.5t16.5 4.5t10 0.5q26 0 38.5 -15.5t12.5 -30.5q0 -11 -5.5 -31t-15 -44t-22.5 -48t-28.5 -44t-32.5 -32.5t-35 -12.5z" />
    <glyph glyph-name="less" unicode="&#x3c;" horiz-adv-x="667" 
d="M62 283v94l543 227v-113l-400 -161l400 -160v-114z" />
    <glyph glyph-name="equal" unicode="=" horiz-adv-x="667" 
d="M606 267v-105h-545v105h545zM606 500v-105h-545v105h545z" />
    <glyph glyph-name="greater" unicode="&#x3e;" horiz-adv-x="667" 
d="M605 378v-95l-543 -227v114l400 160l-400 161v113z" />
    <glyph glyph-name="question" unicode="?" horiz-adv-x="406" 
d="M173 602q-6 0 -15.5 -13.5t-15.5 -26.5q-17 -37 -22.5 -69.5t-5.5 -49.5t2 -27.5t4 -14.5q1 -2 2.5 -7.5t1.5 -7.5q0 -5 -4 -7t-8 -2q-15 0 -30.5 12t-28 31.5t-20.5 45t-8 51.5q0 33 12 61.5t34.5 49.5t54.5 33t72 12q38 0 73 -11t62 -31t43.5 -47t16.5 -59
q0 -38 -14.5 -70.5t-35.5 -60t-45 -49t-43 -37.5q6 0 21 0.5t31.5 0.5t31 0.5t20.5 0.5q17 0 17 -12q0 -10 -12 -30t-27 -34q-29 -29 -75 -41t-105 -12q-6 0 -21.5 0.5t-32 4t-29 10.5t-12.5 20q0 9 8 20t28 36q52 63 86.5 130t34.5 130q0 20 -6 33.5t-13.5 21.5t-15 11.5
t-11.5 3.5zM92 -5q-20 0 -33 13.5t-13 28.5q0 12 3.5 26t9 26.5t11.5 22t11 14.5q21 19 50 27t54 8q14 0 29.5 -5t15.5 -25q0 -5 -2 -18t-6 -28t-10 -29.5t-14 -21.5q-9 -8 -24.5 -15t-32 -12.5t-30.5 -8.5t-19 -3z" />
    <glyph glyph-name="at" unicode="@" horiz-adv-x="854" 
d="M541 479h112l-67 -368q-4 -19 -4 -23v-8q0 -9 5.5 -14.5t13.5 -5.5q17 0 44 16t52.5 47.5t44 77.5t18.5 107q0 56 -18.5 106.5t-56 89t-94.5 61t-133 22.5q-95 0 -163.5 -33t-113.5 -87t-66.5 -122.5t-21.5 -139.5q0 -75 25 -138t72 -109.5t115 -72.5t155 -26
q82 0 159.5 25t132.5 86h102q-5 -8 -15.5 -23t-27.5 -33.5t-41.5 -38.5t-57.5 -38q-54 -29 -117.5 -44t-131.5 -15q-108 0 -192.5 33t-142 91t-87.5 136.5t-30 169.5q0 80 25.5 162t80 148.5t140 108.5t204.5 42q93 0 164 -29.5t119 -80t72.5 -116t24.5 -137.5
q0 -78 -27 -140.5t-69 -106.5t-92.5 -67.5t-97.5 -23.5q-12 0 -25 2t-25 8.5t-21 17.5t-13 29q-8 -7 -19 -17t-26.5 -19t-35.5 -15t-45 -6q-40 0 -71.5 16t-54 43.5t-34.5 65t-12 81.5q0 52 15.5 108.5t45.5 103.5t73 77.5t99 30.5q30 0 52 -8.5t36.5 -19.5t23 -22.5
t13.5 -18.5zM287 160q0 -50 22 -81t59 -31q27 0 47.5 15.5t35.5 39.5t25 54t16 59t8.5 53t2.5 38q0 9 -2.5 26t-10.5 34.5t-24 30.5t-43 13q-36 0 -62 -25.5t-42.5 -63.5t-24 -82t-7.5 -80z" />
    <glyph glyph-name="A" unicode="A" horiz-adv-x="729" 
d="M476 168q-33 -14 -54 -19.5t-49 -4.5l-121 4l-22 -42q-14 -28 -28.5 -48.5t-33.5 -34t-43 -20t-58 -6.5q-23 0 -36.5 4.5t-13.5 18.5q0 6 3.5 14t9 17t11 17.5t10.5 14.5q11 16 18 25.5t12 16t9 12.5t9 14q-6 1 -15 3.5t-17 6.5t-13.5 9.5t-5.5 14.5q0 10 7 22.5t17 25.5
t22 23.5t22 16.5q11 6 25 7.5t43 2.5l23 43q24 43 53.5 96t70.5 124l28 49l-30 54q12 7 36 16t74 9q40 0 66 -16t43 -49t28.5 -84t23.5 -121q14 -86 47.5 -173.5t80.5 -177.5q-38 -26 -66 -40t-58 -14q-25 0 -42.5 9.5t-31 28.5t-25 47.5t-23.5 65.5zM401 467l-90 -190h133z
" />
    <glyph glyph-name="B" unicode="B" horiz-adv-x="656" 
d="M144 507q-15 -7 -24.5 -9t-17.5 -2q-9 0 -13 4t-4 9q0 10 5 24t12 27.5t15 25t15 17.5q22 20 54 33.5t68 22t73.5 12t70.5 3.5q28 0 69.5 -4t80.5 -18.5t66.5 -43.5t27.5 -79q0 -39 -17.5 -70.5t-44 -55t-57 -38.5t-57.5 -22q18 -3 47 -10t56.5 -22t48 -40.5t20.5 -65.5
q0 -41 -18.5 -80.5t-50.5 -70.5q-46 -45 -97.5 -78t-100.5 -54t-91.5 -31t-70.5 -10q-18 0 -42 4.5t-45.5 12.5t-37 20.5t-15.5 29.5q0 16 10 29t30 32q-12 -4 -17.5 -4.5t-9.5 -0.5q-29 0 -45 16.5t-16 37.5q0 7 1.5 16l3 18t3 16t1.5 9q3 13 7 30t9.5 34.5t10.5 34.5
t10 31l57 176q5 16 10 28t9.5 22.5t9 20.5t10.5 21zM303 347q12 -1 36 11t49 34t43.5 51.5t18.5 63.5q0 29 -18.5 45t-50.5 16q-11 0 -16 -1.5t-13 -4.5l-62 -214zM329 285q-18 3 -27.5 7.5t-21.5 18.5q-17 -56 -30.5 -98.5t-27.5 -75.5t-30 -58.5t-38 -47.5l25 -8
q40 -13 62.5 -18t42.5 -5q24 0 41 5t29.5 12t21 15.5l14.5 14.5q24 26 40 62t16 73q0 41 -25 65t-67 32z" />
    <glyph glyph-name="C" unicode="C" horiz-adv-x="615" 
d="M536 228q9 6 21.5 13t21.5 7q6 0 10.5 -4t4.5 -11q0 -2 -3 -17t-12 -37t-25.5 -46t-44.5 -43q-26 -18 -61 -35t-72.5 -30.5t-73 -21.5t-62.5 -8q-46 0 -85 18t-67.5 47t-44.5 66t-16 75q0 36 12.5 85t39.5 101t69.5 104t102.5 94q17 12 41.5 27t53.5 28t60.5 22t62.5 9
q64 0 98 -35.5t34 -86.5q0 -42 -12 -82.5t-32 -77t-45.5 -67t-52.5 -52.5t-53 -34.5t-47 -12.5q-22 0 -22 23q0 8 2.5 13.5t15.5 24.5q17 25 31.5 61t25.5 75t17.5 77t6.5 68q0 5 -1.5 15t-9.5 10q-7 0 -24 -14t-38.5 -39.5t-44.5 -62t-42 -81t-31.5 -96.5t-12.5 -108
q0 -46 11.5 -62t36.5 -16q18 0 43 6.5t69 27.5q51 25 84 45.5t60 37.5z" />
    <glyph glyph-name="D" unicode="D" horiz-adv-x="677" 
d="M108 536q-14 -5 -29.5 -9t-27.5 -4q-16 0 -16 14q0 13 5.5 29.5t16 33t26.5 30.5t36 22q16 6 44.5 11.5t62.5 10t70 7.5t68 3q22 0 53.5 -1.5t66 -9.5t68 -23.5t60.5 -43.5t44 -71t17 -104q0 -35 -8.5 -80.5t-28.5 -93t-53.5 -93t-84 -81.5t-119.5 -58t-160 -22
q-36 0 -68.5 3.5t-58 9.5t-42.5 13t-22 15q-7 9 -7 23q0 8 2 13l115 392q7 23 12.5 37t11 23t11.5 14t13 10q-9 0 -19 -1.5t-36 -10.5zM250 177q-7 -26 -17.5 -51t-27.5 -46h40.5t43.5 2.5t43.5 9.5t41.5 20q12 8 32 27t38.5 49t32.5 72t14 96q0 17 -3 41t-10.5 50t-22 50.5
t-36.5 42.5q-20 15 -35.5 19t-31.5 6z" />
    <glyph glyph-name="E" unicode="E" horiz-adv-x="615" 
d="M253 221q-1 -26 5.5 -46t16.5 -33t22 -19.5t22 -6.5q22 0 55.5 12.5t66 28t57 29t29.5 16.5q20 13 33.5 21t19.5 8q5 0 6.5 -4.5t1.5 -9.5q0 -9 -3 -26.5t-10 -36.5t-18.5 -37.5t-28.5 -29.5q-8 -5 -36.5 -19.5t-66.5 -30.5t-81 -28t-80 -12q-50 0 -92 16.5t-73.5 44.5
t-49 64t-17.5 75q0 53 19 109t51.5 109t75.5 100t91 82t98.5 55.5t98.5 20.5q25 0 49.5 -9t44.5 -24.5t32.5 -37.5t12.5 -47q0 -48 -23.5 -82.5t-56 -56.5t-66 -32t-53.5 -10q-8 0 -18.5 2.5t-10.5 11.5q0 7 5 13t16 17q21 22 34 49.5t20.5 52.5t10.5 43.5t3 22.5
q0 18 -10 18q-6 0 -32 -15t-57 -46t-61 -78.5t-43 -111.5h261q3 0 10 -0.5t14 -2t12.5 -6t5.5 -11.5q0 -8 -12 -26.5t-31 -37.5t-43 -33.5t-49 -14.5h-178z" />
    <glyph glyph-name="F" unicode="F" horiz-adv-x="500" 
d="M305 345q6 0 20.5 0.5t31 1t31 1t19.5 0.5q30 0 49.5 -5t19.5 -25q0 -10 -4.5 -23t-11 -26t-14.5 -24t-15 -18q-7 -6 -18.5 -10t-45.5 -3h-29q-20 0 -40 -1t-31 -2q-9 -30 -17 -54t-16 -43.5t-17 -35t-21 -30.5q-3 -4 -11 -13.5t-20.5 -19t-28.5 -17t-34 -7.5
q-28 0 -50 16t-22 40q0 12 11 54t30 102t44.5 133t54.5 147l11 28q-20 1 -37.5 2.5t-31 6t-21.5 12t-8 20.5q0 22 17 44t34 39q25 24 40.5 29t35.5 5q11 0 37 -1.5t55.5 -3t55 -3t35.5 -1.5q25 -1 43 -2.5t30 -6.5t18 -16t6 -31q0 -25 -7.5 -40t-23.5 -24t-41 -13t-60 -7z
" />
    <glyph glyph-name="G" unicode="G" horiz-adv-x="625" 
d="M264 -52q13 -15 25 -25t28 -21q23 58 34.5 101.5t17.5 86.5q-42 -38 -83 -64t-95 -26q-48 0 -79 20t-49 49.5t-25.5 62.5t-7.5 59q0 61 20 120.5t54.5 113t80.5 98.5t97 78.5t105 52t105 18.5q22 0 43.5 -5t38.5 -17t27 -32.5t10 -50.5q0 -35 -14 -66.5t-36.5 -55
t-51.5 -37t-60 -13.5q-5 0 -11.5 2t-6.5 10l2 5l4 10l4 10l2 5q14 34 18 62.5t4 46.5q0 3 -0.5 10t-1.5 14t-3 12t-6 5q-10 0 -26 -8.5t-35 -23t-37.5 -33.5t-32.5 -39q-24 -34 -40.5 -71t-27 -71.5t-15 -64.5t-4.5 -51q0 -41 16.5 -65t40.5 -24q16 0 31 12t28.5 30t25.5 40
t23 42q10 18 16.5 27.5t17.5 16.5q22 14 45.5 23.5t44.5 15t37 8t22 2.5q19 0 24 -11t5 -18q0 -14 -7.5 -47t-21 -76t-31 -92t-38 -94.5t-43 -84.5t-44.5 -61q-23 -23 -63.5 -37t-82.5 -14q-29 0 -58 7.5t-51.5 19t-36.5 25.5t-14 27q0 14 14 29t31.5 28t33.5 21t21 8
q7 0 15.5 -7t14.5 -14z" />
    <glyph glyph-name="H" unicode="H" horiz-adv-x="750" 
d="M478 351l9 31q9 30 20 66t24 71.5t27 65.5t28 48q14 19 32 29t47 10q14 0 27.5 -3t24 -10t17 -19.5t6.5 -30.5q0 -20 -5 -44t-13 -51t-18.5 -56t-21.5 -57q-3 -6 -6.5 -14.5t-6.5 -16.5t-5 -13.5t-2 -6.5q8 0 19 -1t21.5 -4.5t17.5 -9.5t7 -17q0 -9 -6.5 -21.5t-16 -25
t-20 -23t-18.5 -16.5q-7 -5 -15 -7.5t-31 -7.5l-12 -35q-6 -19 -14 -39.5t-16 -39t-15.5 -34t-14.5 -24.5q-8 -11 -23 -20t-32 -16.5t-34.5 -11.5t-30.5 -4q-19 0 -32 11t-13 31q0 10 2 22.5t5 24t5.5 21t3.5 12.5q1 6 6 20.5t10.5 31t10 31t6.5 20.5l-174 2l-25 -84
q-10 -33 -19 -59.5t-22.5 -45t-34 -29t-52.5 -10.5q-33 0 -55.5 15.5t-22.5 39.5q0 15 4 33.5t10 39.5t13 42t14 40q-11 2 -24.5 8t-13.5 23q0 11 4.5 25t14 29t24 29t34.5 24l50 156q19 61 35.5 96.5t33 53.5t33 23t34.5 5q42 0 63.5 -20t21.5 -43q0 -12 -6 -34t-11 -36
q-1 -4 -8.5 -27t-17 -53t-20 -61.5l-17.5 -52.5z" />
    <glyph glyph-name="I" unicode="I" horiz-adv-x="563" 
d="M233 543q-5 -2 -14.5 -5t-21 -6t-23 -5t-19.5 -2q-15 0 -25.5 10t-10.5 22t6 26t15.5 27.5t20.5 24.5t21 18q13 9 32 14t39.5 7.5t41.5 3t39 0.5q3 0 31.5 -0.5t66.5 -2.5t78 -7.5t67 -14.5q15 -6 19.5 -12t4.5 -17q0 -18 -8 -56.5t-25 -92.5t-43.5 -122t-62.5 -144
q-30 -64 -53 -105t-45.5 -65t-47.5 -33t-59 -9q-39 0 -74 11t-61.5 30.5t-42.5 47t-16 60.5q0 19 5.5 40t13.5 38.5t18.5 29t20.5 11.5q9 0 17 -5.5t14.5 -13t11.5 -16.5t8 -16l14 -29q17 -35 32 -55.5t32 -40.5q12 26 21.5 49t19.5 50t21 62.5t25 88.5q18 67 30 122.5
t22 117.5q-29 0 -60 -7.5t-57 -16.5z" />
    <glyph glyph-name="J" unicode="J" horiz-adv-x="531" 
d="M296 554q-6 -2 -21 -6t-31.5 -8.5t-31 -9t-20.5 -5.5q-21 -6 -35.5 -8.5t-28.5 -2.5q-23 0 -39.5 10t-16.5 28q0 14 5.5 29t14 29.5t19.5 26t22 18.5q25 15 68 20.5t94 5.5q11 0 37.5 -0.5t57.5 -3t60 -7.5t45 -14q14 -8 17 -15.5t3 -12.5q0 -8 -5 -38t-15.5 -76.5
t-26.5 -106t-37 -125.5t-48 -136t-59 -138q-10 -21 -26 -51.5t-38 -59t-50 -48.5t-61 -20q-23 0 -44.5 16t-38 42.5t-26.5 59.5t-10 66q0 44 13.5 79.5t32.5 60t39 38t33 13.5q10 0 13.5 -13.5t3.5 -20.5q0 -5 -2 -17t-4 -25.5t-4 -25.5t-3 -16q-2 -20 -5 -48.5t-3 -60.5
q0 -17 1.5 -28t6.5 -29q22 40 35.5 83.5t24.5 88.5q21 79 34 139t22 112t15 102t13 109z" />
    <glyph glyph-name="K" unicode="K" horiz-adv-x="688" 
d="M327 461l-19 -55l112 121q9 10 32.5 32.5t55.5 46t68.5 41.5t69.5 18q23 0 28.5 -9.5t5.5 -18.5q0 -36 -29 -69t-100 -76l-39 -24q-14 -9 -24.5 -15.5t-19.5 -13t-18 -13.5t-20 -16q4 -24 11.5 -55t21 -67t36 -74.5t57.5 -76.5q25 -28 44.5 -40t31.5 -17q3 -2 7.5 -4.5
t4.5 -7.5q0 -7 -9.5 -19.5t-27.5 -25t-44 -22t-58 -9.5q-49 0 -84 18.5t-58.5 47.5t-38 64.5t-22.5 70t-11 63.5t-4 46q-10 -14 -16.5 -24.5t-13 -24t-14.5 -32.5t-20 -51q-20 -48 -36.5 -75.5t-36.5 -44.5q-23 -20 -52 -34t-47 -14q-11 0 -20.5 9.5t-9.5 23.5
q0 11 9.5 50.5t24.5 95.5t35 121.5t41 127.5t42 114t38 81q14 23 48 36.5t71 13.5q53 0 53 -33q0 -10 -5 -29.5t-12 -40.5t-13 -39.5t-9 -26.5z" />
    <glyph glyph-name="L" unicode="L" horiz-adv-x="385" 
d="M189 104q16 2 38.5 4.5t55.5 9.5q19 4 31 6.5t18.5 3.5t10.5 1.5t9 0.5t10.5 -2.5t5.5 -9.5q0 -9 -5.5 -21.5t-14 -26.5t-19.5 -27t-21 -22q-7 -6 -16.5 -11t-24.5 -8.5t-37.5 -5.5t-55.5 -2q-47 0 -77 1.5t-47 7.5t-23.5 17t-6.5 30q0 16 5 44.5t12 61.5t16 68t16.5 64
t13 48t6.5 22q18 62 32 106.5t25 76.5t20.5 53t20.5 36q10 14 26 22t33.5 12.5t35 5.5t29.5 1q26 0 45 -6t19 -29q0 -15 -8 -43.5t-19 -60.5t-23 -63t-20 -50q-21 -51 -36 -88t-28 -70.5t-25 -70t-27 -86.5z" />
    <glyph glyph-name="M" unicode="M" horiz-adv-x="1033" 
d="M264 299q-32 -74 -58 -124t-49 -84q-32 -46 -75 -68.5t-77 -22.5q-16 0 -24 6t-8 14q0 5 2.5 9t13.5 17q13 15 28.5 39.5t29.5 47.5q13 21 36 60.5t44 79.5l23 44q3 6 11 21.5t16 33t15.5 32.5l10.5 21q5 10 17.5 33t26 49t25 49.5t15.5 32.5q3 6 3 10q0 7 -5 13t-13 12
q-2 2 -5 5.5t-3 8.5q0 6 7.5 11t20 9.5t28.5 7t33 2.5q9 0 22.5 -1t28.5 -5t29 -12t23 -21q7 -9 13 -25.5t10.5 -35t8.5 -36.5t6 -30l28 -160q4 -22 6.5 -36t5 -23t6 -15t9.5 -13l10 22q17 37 41.5 92t51 109t51 97.5t40.5 58.5q20 18 48.5 26t73.5 8q17 0 26 -1.5
t12.5 -6.5t4 -15t-0.5 -27l-1 -21q-1 -15 -2 -45.5t-1 -60.5q0 -26 1 -57.5t4 -64t7.5 -64t12.5 -56.5q6 -21 11 -34.5t9 -23t8 -16t8 -13.5q11 -19 21.5 -30t22.5 -22q3 -3 7 -9t4 -11q0 -8 -10 -22t-25.5 -27.5t-36 -23.5t-41.5 -10q-26 0 -53.5 12t-51.5 34.5t-41.5 54.5
t-24.5 72q-3 16 -4.5 28t-2.5 28.5t-2.5 42t-3.5 68.5l-3 45l-18 -33q-17 -31 -38 -72t-46 -92l-27 -55l-9 -18t-13.5 -26.5t-15 -29.5t-14.5 -27q-14 -23 -26 -31t-27 -8q-21 0 -45.5 25.5t-43.5 67.5q-32 73 -45.5 155.5t-23.5 187.5q-8 -17 -14.5 -30.5t-12.5 -26
t-12.5 -27t-14.5 -32.5z" />
    <glyph glyph-name="N" unicode="N" horiz-adv-x="782" 
d="M227 201q-11 -34 -19.5 -56t-15 -35.5t-10.5 -20t-7 -10.5q-26 -38 -64.5 -55t-70.5 -17q-6 0 -16 3t-10 16q0 15 17 44l11 20q7 13 16 30.5t17 35t14.5 32t9.5 21.5l89 233q8 22 19 49t20 44l7 14q2 4 6.5 14.5t4.5 17.5q0 9 -7.5 16.5t-18.5 15.5q-2 2 -7 6.5t-5 9.5
q0 7 17 15.5t40 15.5t48 12t41 5q19 0 35 -6.5t24 -15.5q9 -10 17 -27t15 -36t12 -36t8 -26l15 -53q14 -48 31 -94.5t42 -85.5q7 23 12 39t9.5 32.5t10 38.5t14.5 57q6 22 13 48t16 50t21 44.5t27 33.5q19 17 41 24.5t42 7.5q13 0 19 -6.5t6 -26.5q0 -8 -1.5 -20.5
t-9.5 -41.5q-8 -33 -23 -77.5t-30.5 -87t-28 -75.5t-16.5 -42l-87 -215q-3 -9 -8.5 -21t-13 -23t-17.5 -19t-23 -8q-19 0 -37.5 17.5t-43.5 62.5q-51 91 -84 179.5t-55 168.5z" />
    <glyph glyph-name="O" unicode="O" horiz-adv-x="635" 
d="M430 453q-8 14 -10.5 21t-2.5 14q0 14 15 31t36 32t43 25.5t36 10.5q9 0 21.5 -5t19.5 -13q17 -19 26 -61t9 -91q0 -88 -27.5 -165t-75 -134.5t-111 -90.5t-136.5 -33q-40 0 -84 12t-81 38t-61 66.5t-24 97.5q0 56 20 115.5t54.5 114.5t82 102t101.5 77q46 26 98 40
t96 14q3 0 11 -0.5t17 -2t16 -5t7 -9.5q0 -10 -16.5 -27t-68.5 -35q-20 -7 -36 -12.5t-31 -13.5t-32 -21t-39 -36q-28 -29 -45.5 -61t-27 -63.5t-12.5 -60.5t-3 -53q0 -38 6 -72t18.5 -59.5t32 -40.5t46.5 -15q29 0 58 19.5t52 51t37 71.5t14 81q0 36 -12 70t-23 52z" />
    <glyph glyph-name="P" unicode="P" horiz-adv-x="594" 
d="M274 293q-3 -10 -9.5 -33.5t-13.5 -50t-13.5 -49.5t-9.5 -32q-8 -23 -17.5 -40t-20.5 -29.5t-24 -22t-29 -16.5q-11 -5 -33 -12.5t-41 -7.5q-16 0 -26.5 9.5t-10.5 29.5q0 15 5.5 41t14 55t17 56.5t14.5 45.5l114 339q-10 2 -21.5 -0.5t-24.5 -7.5q-15 -5 -21.5 -7.5
t-11.5 -2.5q-8 0 -13.5 6.5t-5.5 15.5q0 21 16 40t37 28q16 7 37 12t44 8t45.5 4.5t42.5 1.5q61 0 104.5 -11t73.5 -29t47.5 -39.5t27 -42.5t12.5 -38.5t3 -27.5q0 -31 -8.5 -62.5t-22.5 -61t-31.5 -54.5t-36.5 -43q-39 -36 -86.5 -54.5t-83.5 -18.5q-12 0 -27 4.5t-15 18.5
q0 16 14.5 28t40.5 29q16 11 31.5 24.5t27 31.5t18.5 42.5t7 57.5q0 29 -6 49.5t-15 34.5t-19 22.5t-18 13.5z" />
    <glyph glyph-name="Q" unicode="Q" horiz-adv-x="677" 
d="M461 65q-14 -9 -32.5 -21t-43 -22.5t-54 -17.5t-63.5 -7q-55 0 -99 18t-75.5 49t-48.5 71t-17 85q0 51 12 97t31 85.5t43 71.5t47 55q39 38 83.5 65t89.5 43.5t88.5 24t81.5 7.5q34 0 43 -8t9 -18q0 -24 -26 -35t-84 -27q-38 -11 -79.5 -33t-68.5 -60q-38 -53 -56 -111
t-18 -103q0 -34 9.5 -64t26 -52.5t39.5 -35.5t50 -13q23 0 37.5 7t23.5 12q-14 22 -23.5 35t-18.5 22t-20 15t-28 15q-27 13 -27 27t20 24t48 10q43 0 73 -18.5t60 -45.5q9 23 13.5 42t4.5 48q0 47 -11 78.5t-35 65.5q-9 12 -14 19.5t-7.5 12.5t-3.5 8.5t-1 8.5
q0 16 13 31.5t31.5 28t39.5 20t37 7.5q29 0 47.5 -15.5t29 -38.5t14.5 -49.5t4 -48.5q0 -45 -8 -82.5t-22 -70.5t-32.5 -62.5t-38.5 -59.5q10 -10 18.5 -16.5t20.5 -12t28.5 -10.5t43.5 -11q-3 -24 -10 -46.5t-21 -42.5q-8 -11 -17 -15.5t-27 -4.5q-43 0 -72 20t-58 49z" />
    <glyph glyph-name="R" unicode="R" horiz-adv-x="625" 
d="M151 549q-11 -2 -14.5 -2h-7.5q-5 0 -15 2.5t-10 17.5q0 14 6.5 29t13.5 20q10 7 28.5 14t43 12.5t52 8.5t55.5 3q63 0 117 -14t93 -39.5t61.5 -62.5t22.5 -82q0 -36 -16 -73t-53 -69q-25 -22 -46 -31t-50 -18q14 -23 30 -40.5t36.5 -32t47 -27.5t62.5 -28
q-7 -29 -13 -49.5t-18 -37.5q-6 -9 -14.5 -18.5t-19 -17.5t-22 -13.5t-24.5 -5.5q-5 0 -20.5 2t-36.5 12.5t-46 32t-49 59.5q-13 21 -25 44.5t-21.5 46t-15 41.5t-5.5 29t5.5 15t14.5 9l17 6q25 9 45.5 26.5t35.5 41.5t23.5 53t8.5 59q0 27 -7 44.5t-19 28.5t-27 17t-30 10
l-62 -220l-31 -105q-16 -54 -27 -86.5t-19 -51.5t-13 -27t-8 -13q-11 -15 -28 -27t-35 -19.5t-33.5 -11.5t-24.5 -4q-16 0 -27.5 10.5t-11.5 32.5q0 13 4 33.5t9.5 42.5t11.5 43.5t11 36.5q16 53 33 103t33.5 94.5t31 82.5t26.5 67z" />
    <glyph glyph-name="S" unicode="S" horiz-adv-x="510" 
d="M374 448q0 1 1.5 14t1.5 21q0 18 -4.5 38t-11.5 36t-15.5 26.5t-17.5 10.5q-5 0 -11.5 -6t-13.5 -17.5t-11.5 -26.5t-4.5 -33q0 -26 11.5 -50t40.5 -52l44 -41q30 -29 55 -67.5t25 -89.5q0 -43 -17 -83.5t-46 -72t-68.5 -51t-84.5 -19.5q-43 0 -83 17.5t-71.5 42
t-50.5 51.5t-19 47q0 17 13.5 32.5t32 27.5t38.5 19t33 7t22.5 -9.5t17.5 -35.5l8 -30q3 -9 8.5 -23t13.5 -27t18.5 -22t25.5 -9q17 0 29.5 14.5t12.5 40.5t-8.5 47.5t-22 40t-32 36t-37.5 35.5q-18 16 -36.5 34t-34 39t-25 45.5t-9.5 52.5q0 45 20.5 84t55 68.5t80.5 46.5
t97 17q67 0 110.5 -29.5t43.5 -86.5q0 -31 -14 -58.5t-32.5 -48t-38 -32.5t-29.5 -12q-6 0 -9.5 6.5t-2.5 12.5z" />
    <glyph glyph-name="T" unicode="T" horiz-adv-x="469" 
d="M371 656q49 -3 79.5 -10.5t30.5 -36.5q0 -18 -7 -36t-19 -26q-5 -3 -14.5 -6t-19.5 -5.5t-18.5 -4t-11.5 -2.5l-20 -3q5 -6 8.5 -11.5t3.5 -13.5q0 -4 -0.5 -7.5t-2.5 -11.5t-6 -23.5t-12 -42.5q-4 -13 -11 -41.5t-16 -64t-19 -74t-19 -72.5t-17.5 -60t-13.5 -36
q-10 -18 -29 -31.5t-39 -22.5t-37.5 -13.5t-23.5 -4.5q-23 0 -40 17.5t-17 45.5q0 25 11 68t24.5 87.5t26.5 80.5t17 48q14 42 32 82.5t41 90.5q-41 -5 -71 -7t-50 -2q-32 0 -48 11t-16 28q0 20 13.5 39t25.5 32q16 17 30 26.5t26.5 14.5t24.5 6t26 1q10 0 28 -0.5t39 -1.5
t43 -2.5t41 -2.5z" />
    <glyph glyph-name="U" unicode="U" horiz-adv-x="625" 
d="M312 546q-23 -54 -41 -111t-30 -106t-18.5 -83.5t-6.5 -42.5q0 -6 2 -11t7 -5q9 0 33.5 28t57 74.5t70 106.5t72.5 124q6 11 13.5 22.5t18.5 21t26 15.5t38 6q13 0 28.5 -7.5t15.5 -33.5q0 -3 -0.5 -10t-2.5 -24l-3 -25q-5 -40 -7.5 -86t-2.5 -91q0 -23 2.5 -69.5
t15.5 -105.5l8 -36q2 -14 4.5 -26.5t2.5 -20.5q0 -7 -3 -14t-12 -12q-10 -6 -22.5 -10.5t-24.5 -8t-22.5 -5t-15.5 -1.5q-27 0 -56.5 22t-48.5 79q-11 32 -14.5 65t-5.5 65q-23 -38 -48.5 -79t-56 -75.5t-66 -56.5t-76.5 -22q-28 0 -50 10t-37.5 28t-23.5 42t-8 52
q0 35 7 80t18.5 93.5t26 97.5t29.5 92.5t29 78t24 54.5q4 8 10.5 17t20 17t36 13t60.5 5q31 0 42 -12t11 -34q0 -11 -3 -25t-13 -37z" />
    <glyph glyph-name="V" unicode="V" horiz-adv-x="542" 
d="M404 474q5 22 11 41t16.5 37t27 35.5t41.5 37.5q5 4 12.5 9t15 9.5t14.5 8t11 3.5q10 0 12 -10.5t2 -17.5q0 -56 -21.5 -128t-53.5 -144.5t-68 -138t-66 -110.5q-9 -14 -23.5 -33t-35.5 -36t-50 -28.5t-69 -11.5q-13 0 -23 3.5t-18.5 15t-16.5 32t-17 55.5
q-21 84 -32.5 168t-11.5 170q0 17 0.5 41.5t3 49t8 46t15.5 32.5q7 8 23.5 17.5t36.5 17.5t40 13.5t35 5.5q20 0 26.5 -11t6.5 -28q0 -10 -0.5 -25t-2.5 -41l-4 -47q-5 -68 -5.5 -105t-0.5 -56q0 -55 2 -92t5 -61.5t6.5 -39t6.5 -25.5q18 24 32 45.5t29 53.5
q14 29 35.5 83.5t36.5 122.5z" />
    <glyph glyph-name="W" unicode="W" horiz-adv-x="813" 
d="M199 204q20 25 39 53t36 57t31 56.5t25 50.5l9 22q10 21 24 51t29 59t29.5 52t26.5 31q17 11 49 20.5t61 9.5q17 0 30 -8.5t13 -22.5q0 -4 -1.5 -11t-4 -14.5t-4.5 -14.5t-3 -11q-29 -88 -43.5 -170.5t-14.5 -151.5q0 -6 1 -27.5t5.5 -45.5t15 -42.5t30.5 -18.5
q17 0 33 22.5t28 60t19.5 85t7.5 97.5q0 18 -0.5 36t-2.5 41l-1 17q-2 23 11 47t30.5 44t35 32.5t26.5 12.5q12 0 18.5 -14.5t9.5 -34t4 -40t1 -31.5q0 -81 -13 -149t-35 -122.5t-52 -97.5t-63 -75q-29 -27 -58 -43t-68 -16t-65 15t-43 39t-26.5 55t-13.5 63t-4.5 62.5
t0.5 53.5q-8 -14 -28 -48.5t-45 -73.5t-53 -76t-53 -56q-16 -13 -38 -21.5t-35 -8.5q-20 0 -32.5 17.5t-22.5 61.5q-11 43 -19.5 129t-8.5 204q0 61 3.5 98.5t8.5 59t11 30.5t11 14q11 11 31.5 20.5t42 17t42 12t31.5 4.5q17 0 23 -9t6 -14q0 -1 -2 -12.5t-4.5 -26t-4.5 -28
t-3 -18.5q-4 -32 -7.5 -63t-6.5 -67t-5 -79.5t-3 -100.5z" />
    <glyph glyph-name="X" unicode="X" horiz-adv-x="719" 
d="M168 527q-10 21 -16 34t-10.5 22t-9 15.5t-11.5 15.5q-4 5 -9 8.5t-12 7.5q-2 1 -5 3.5t-3 5.5q0 6 12.5 12t31.5 11t40.5 8t38.5 3q38 0 67.5 -21t60.5 -72q33 -55 53.5 -106.5t32.5 -85.5q10 12 26.5 33.5t39.5 58.5l24 38q16 25 27.5 41.5t21.5 27t19.5 17.5t20.5 13
q26 14 46.5 18t29.5 4q8 0 15.5 -3.5t7.5 -14.5q0 -14 -20 -47t-45.5 -69.5t-50.5 -69l-35 -45.5l-77 -97q6 -14 17 -36.5t28 -49t40.5 -54.5t56.5 -53q2 -2 7 -5t10 -6.5t9.5 -7t6.5 -4.5q3 -3 3 -5q0 -5 -12.5 -17t-32.5 -24t-45.5 -21.5t-50.5 -9.5q-19 0 -37 5.5
t-33.5 13.5t-27.5 18t-19 18q-14 16 -27.5 37t-24.5 44l-30 -32q-28 -30 -66 -67t-76 -69.5t-70.5 -55t-49.5 -22.5q-13 0 -22 15t-9 35q0 3 0.5 14.5t5 27.5t13.5 33.5t26 31.5q3 2 6 4.5t9 7t17 12t30 20.5q25 17 46 33t40 32t36.5 33t35.5 37l10 11z" />
    <glyph glyph-name="Y" unicode="Y" horiz-adv-x="668" 
d="M319 600l2 -24t3 -25l5 -37q1 -8 2.5 -27t4 -40t4.5 -40t3 -26q5 -45 11.5 -80t13.5 -61.5t13 -46t11 -33.5q10 20 24.5 50.5t29 63.5t28 65.5t22.5 57.5l11 32q19 53 35.5 85.5t39.5 58.5q13 14 29.5 28t33 25t33 17.5t29.5 6.5q5 0 10.5 -3t5.5 -11q0 -9 -7.5 -29.5
t-17.5 -44t-20 -45.5t-15 -34q-35 -75 -73.5 -152t-79.5 -149t-82.5 -134.5t-82.5 -106.5q-45 -49 -102 -82t-123 -33q-23 0 -38 9t-15 23q0 11 5.5 27t14 32.5t17.5 30.5t17 22q5 5 12 8t23 4h18q37 0 65 12.5t58 31.5q-12 21 -28 50t-33 63t-33.5 72.5t-29.5 79.5
q-9 28 -17 60.5t-14 66t-9.5 67t-3.5 62.5q0 26 6 44.5t21 29.5q16 12 35.5 21.5t38 16t34 9.5t23.5 3q14 0 21.5 -10.5t9.5 -42.5z" />
    <glyph glyph-name="Z" unicode="Z" horiz-adv-x="625" 
d="M290 530q-29 -6 -63 -12.5t-60 -6.5q-23 0 -37 10t-14 26t10.5 35.5t25.5 40.5q11 16 19.5 25t17 13t18.5 5t24 1l250 6h16t29 -1t32 -2.5t25 -4.5q11 -4 19.5 -12t8.5 -17q0 -10 -7.5 -20.5t-21.5 -28.5q-18 -23 -34.5 -45t-33.5 -45l-60 -84q-1 -2 -11 -16t-24.5 -35.5
t-32.5 -48t-34.5 -52.5t-30 -49t-20.5 -38q36 2 85.5 5.5t114.5 17.5q28 6 35.5 7.5t12.5 1.5q16 0 20.5 -7.5t4.5 -13.5q0 -15 -6 -32.5t-15 -34.5t-19.5 -31t-19.5 -22q-26 -22 -60.5 -35t-70 -19.5t-68.5 -8.5t-56 -2q-43 0 -84 5t-73.5 15t-52 25.5t-19.5 36.5q0 6 2 14
t11.5 23.5t29.5 40.5t56 65l119 133q9 10 29.5 33.5t44.5 52t46 57.5t34 50q-12 -2 -20.5 -3t-16.5 -2.5t-17.5 -3.5t-23.5 -5z" />
    <glyph glyph-name="bracketleft" unicode="[" horiz-adv-x="385" 
d="M175 101q37 2 59.5 0.5t34.5 -5.5t15.5 -10.5t3.5 -13.5q0 -18 -8 -36.5t-13 -23.5q-6 -5 -17.5 -8t-25 -4.5t-26.5 -2t-22 -0.5h-30t-40 1t-39 2.5t-26 4.5q-10 4 -14 11.5t-4 24.5q0 14 3.5 46.5t9.5 83.5t10 83.5t7 60.5t5.5 59.5t5.5 80.5q1 18 3.5 46t6.5 56t9.5 53
t13.5 37q9 14 28 21.5t62 7.5q66 0 104.5 -5t57.5 -13.5t24 -20.5t5 -27q0 -18 -8 -35t-28 -17q-3 0 -11 1t-16.5 2t-15.5 2t-10 1q-17 2 -31 1.5t-27 -1.5q-10 -61 -18 -107t-15.5 -88t-16 -86t-20.5 -101q-4 -19 -6.5 -31.5t-5 -21.5t-4 -15.5t-3.5 -13.5z" />
    <glyph glyph-name="backslash" unicode="\" horiz-adv-x="469" 
d="M88 455q-11 21 -23.5 48.5t-23.5 54.5t-18.5 51t-7.5 38q0 23 16 41.5t41 18.5q24 0 42 -13t24 -21q7 -8 17.5 -20.5t23 -32.5t27.5 -49.5t33 -72.5l136 -334q6 -14 17.5 -42.5t23.5 -59.5t21 -58t9 -36q0 -13 -10 -22.5t-26 -9.5q-12 0 -22 4.5t-18 10.5t-13 12t-7 9
q-14 18 -35.5 54.5t-44.5 77.5t-44 79.5t-33 62.5z" />
    <glyph glyph-name="bracketright" unicode="]" horiz-adv-x="406" 
d="M337 307q-1 -3 -4.5 -24t-10 -51.5t-14 -66t-15 -67t-15 -54.5t-13.5 -29q-3 -4 -7 -7t-12.5 -5t-25 -3.5t-44.5 -2.5l-63 -1q-46 0 -71.5 6.5t-25.5 30.5q0 17 7.5 35t13.5 25q5 7 14 8.5t18 1.5h54t53 2q5 18 11.5 60t13.5 98.5t13 122t9 128.5l2 47q-9 -1 -25 -1
t-33 -2q-3 0 -11.5 -1t-18 -2t-18 -2t-11.5 -1q-26 0 -26 17q0 8 2.5 19.5t6.5 23.5t9 22t11 15q11 11 51 20t95 9q47 0 78 -7.5t42 -16.5q12 -11 12 -30q0 -4 -0.5 -19t-5.5 -38z" />
    <glyph glyph-name="asciicircum" unicode="^" horiz-adv-x="469" 
d="M26 283l173 391h71l173 -391h-89l-120 292l-118 -292h-90z" />
    <glyph glyph-name="underscore" unicode="_" horiz-adv-x="500" 
d="M-6 -75h512v-50h-512v50z" />
    <glyph glyph-name="grave" unicode="`" 
d="M247 717q4 0 7 -1.5t8 -6t12 -13.5t18 -23q22 -27 41 -40.5t43 -27.5q1 -1 5.5 -4t9.5 -7t8.5 -8.5t3.5 -9.5q0 -6 -5 -11t-13 -8.5t-17.5 -5.5t-18.5 -2q-26 0 -58.5 8t-61.5 21t-49 29t-20 33q0 10 9.5 23t23.5 25t28.5 20.5t25.5 8.5z" />
    <glyph glyph-name="a" unicode="a" horiz-adv-x="552" 
d="M360 142q-63 -69 -115 -112t-104 -43q-26 0 -48 10t-38 27.5t-25.5 39.5t-9.5 46q0 37 14 78.5t39 81.5t58.5 76t72.5 63.5t82 44t87 16.5q27 0 52 -6t44.5 -17.5t31 -29t11.5 -40.5q0 -19 -7 -33.5t-13 -24.5q22 -1 31 -4.5t9 -22.5q0 -2 -0.5 -8t-1 -13.5t-1 -14.5
t-0.5 -9q-2 -19 -2 -37v-37q0 -25 1 -43t3.5 -32t5.5 -25.5t8 -23.5q-24 -23 -49.5 -39.5t-59.5 -16.5q-27 0 -42.5 13.5t-23 35t-9.5 48t-1 52.5zM391 254q-13 -4 -31.5 -8.5t-32.5 -4.5q-7 0 -12 2.5t-5 7.5q0 3 1.5 6.5t8.5 15.5q16 26 20.5 43t4.5 31q0 21 -7.5 38.5
t-15.5 17.5q-5 0 -10 -3.5t-14 -13.5q-19 -20 -37 -44t-31.5 -50t-22 -52t-8.5 -51q0 -20 10 -39t27 -19q5 0 10 1.5t7 3.5q9 4 24 15t32 26t35 31.5t34 32.5z" />
    <glyph glyph-name="b" unicode="b" horiz-adv-x="469" 
d="M306 208q-12 -4 -17 -4q-18 0 -28.5 13t-10.5 29q0 22 10.5 58t28.5 71t42.5 60.5t52.5 25.5q33 0 51.5 -32t18.5 -90q0 -68 -22 -129.5t-60 -109t-88 -75.5t-107 -28q-36 0 -65 14t-49 38t-30.5 56t-10.5 68q0 47 13 104.5t35.5 116.5t53 114.5t67 99t76.5 70t81 26.5
q45 0 71.5 -28t26.5 -67q0 -29 -14.5 -56.5t-38 -49t-52 -35t-56.5 -13.5q-16 0 -16 9q0 4 3 9t16 23q26 37 38.5 69.5t12.5 61.5q0 8 -1.5 15t-6.5 7q-8 0 -31 -33.5t-52 -114.5q-3 -9 -13 -40.5t-21.5 -74.5t-20 -92t-8.5 -92q0 -54 16 -83.5t39 -29.5q20 0 32.5 14.5
t19.5 34t10 39.5t4 31z" />
    <glyph glyph-name="c" unicode="c" horiz-adv-x="385" 
d="M330 175q9 9 15 9q8 0 9.5 -5t1.5 -13q0 -39 -20.5 -71t-51 -55.5t-65.5 -36.5t-63 -13q-27 0 -51 10t-42 27.5t-28 40t-10 46.5q0 42 12.5 84.5t33.5 82t48.5 74.5t57 60.5t59 40.5t55.5 15q14 0 29 -4.5t27 -13.5t19.5 -22.5t7.5 -32.5q0 -24 -10 -47t-26 -41.5
t-35.5 -29.5t-38.5 -11q-5 0 -10.5 1.5t-5.5 9.5q0 3 1.5 6l6.5 13q6 13 11.5 29t5.5 43q0 3 -0.5 12t-5.5 9q-9 0 -22 -22.5t-25 -55.5t-20 -70t-8 -66t10 -49t26 -20t43 16t59 50z" />
    <glyph glyph-name="d" unicode="d" horiz-adv-x="573" 
d="M356 467q6 24 13.5 53.5t16 58.5t18.5 54.5t21 42.5q4 6 9 11.5t14.5 10t23.5 7.5t36 3q28 0 38 -4t15 -7q-8 -24 -15 -47t-13.5 -47.5t-12.5 -53t-12 -64.5q-2 -12 -4.5 -32.5t-5 -45t-4.5 -52.5t-2 -55q0 -35 3 -66.5t8 -61t12.5 -58.5t15.5 -60l-24 -16t-33.5 -19
t-38 -16t-37.5 -7q-25 0 -38.5 26t-20.5 91l-3 25q-48 -48 -83 -77t-60.5 -44.5t-43.5 -20.5t-33 -5q-26 0 -44 11.5t-29 29t-16 37.5t-5 37q0 38 10.5 77.5t27.5 77t40 71t47 57.5q34 34 76 58t74 24q14 0 25.5 -6.5t28.5 -17.5zM336 243q-10 -8 -19.5 -15t-18.5 -7
q-6 0 -6 7q0 1 3 10q5 16 7.5 28.5t2.5 28.5q0 15 -3 33.5t-8 34.5t-11 27t-13 11q-10 0 -23 -21.5t-24 -52.5t-19 -65.5t-8 -61.5q0 -36 11.5 -47.5t22.5 -11.5q15 0 30.5 8.5t30 20.5t26.5 24.5t19 20.5v28z" />
    <glyph glyph-name="e" unicode="e" horiz-adv-x="427" 
d="M336 156q27 19 40 19t25.5 -8t12.5 -16t-14 -23q-23 -23 -52.5 -46t-62.5 -41t-68 -29.5t-70 -11.5q-26 0 -48.5 9.5t-39 26t-26.5 39t-10 48.5q0 34 8.5 68.5t22 67t31 60.5t34.5 48q22 27 48 47t53 33.5t53 20.5t49 7q47 0 72.5 -29.5t25.5 -73.5q0 -46 -22.5 -88.5
t-54.5 -77.5q-44 -48 -75.5 -61.5t-51.5 -13.5q-2 0 -9.5 1t-11.5 4q2 -7 7.5 -18t27.5 -11t44.5 11.5t39.5 22.5zM194 152q15 11 28.5 23t27.5 39q13 25 21.5 50t13 46t6 38t1.5 26v7t-1 10.5t-3.5 9.5t-6.5 4q-8 0 -23.5 -23.5t-30.5 -57.5t-26 -73.5t-11 -70.5
q0 -7 1 -15t3 -13z" />
    <glyph glyph-name="f" unicode="f" horiz-adv-x="365" 
d="M203 78q-2 -24 -5 -52.5t-6 -56t-7 -50.5t-7 -36q-4 -14 -9 -24.5t-13.5 -18t-21.5 -11.5t-32 -4q-17 0 -36 4.5t-30 19.5q-4 5 -5 12t-1 22l0.5 24.5t3 62.5t6.5 84t11 89q10 62 25 126t34.5 122.5t42.5 110t49 89.5t53.5 60t55.5 22q26 0 34 -19t8 -42q0 -32 -5 -65.5
t-13.5 -61t-18 -45.5t-18.5 -18q-5 0 -7 5t-3.5 12t-1.5 14v11l1 23q0 19 -1 30t-2 17.5t-3 9.5t-3 5l-4 -8t-3.5 -10t-3 -15t-4.5 -24q-5 -27 -10 -58.5t-10 -64.5t-9.5 -66.5t-8.5 -64.5l37 2q16 1 31.5 1t28 -3t20 -9t7.5 -17q0 -20 -14 -45.5t-38 -42.5q-12 -8 -28 -12
t-47 -6l-17 -1z" />
    <glyph glyph-name="g" unicode="g" horiz-adv-x="552" 
d="M326 114q-54 -42 -90 -66t-60 -36t-39.5 -15t-28.5 -3q-39 0 -62.5 30t-23.5 72q0 63 34 127.5t88 117.5t122 86.5t137 33.5q12 0 31.5 -2.5t39 -10.5t33.5 -25t14 -45q0 -23 -8 -44t-20 -44q6 -1 12.5 -2.5t12.5 -5.5t10 -12.5t4 -22.5q0 -32 -8 -78.5t-23.5 -95
t-37.5 -95t-49 -78.5q-26 -30 -55 -51.5t-57.5 -35.5t-53.5 -20.5t-41 -6.5q-15 0 -31 6.5t-29 18t-21 28t-8 37.5q0 25 12 47.5t30.5 41t40 33.5t41 25.5t33.5 16t18 5.5q8 0 8 -7q0 -2 -2 -5.5t-4 -8.5l-7 -13q-7 -13 -12.5 -29t-9.5 -32.5t-6 -32t-2 -27.5
q0 -11 2.5 -20.5t7.5 -9.5q6 0 18.5 21.5t25.5 59t24.5 87.5t15.5 106zM306 184q22 18 39.5 30.5t31.5 23.5q-11 -2 -18.5 -2h-15.5q-4 0 -14 1t-10 8q0 2 3 7t8 11q15 19 23.5 40t13 39t6 30.5t1.5 15.5q0 11 -7 11q-15 0 -41 -22t-51 -57t-43 -78t-18 -84q0 -28 14 -28
q4 0 11.5 4t15.5 9.5t15.5 11.5l12.5 10z" />
    <glyph glyph-name="h" unicode="h" horiz-adv-x="500" 
d="M240 256q12 12 35 33.5t51 43t57.5 37.5t53.5 16q18 0 28.5 -15t10.5 -35q0 -8 -2.5 -22.5t-6 -33.5t-6 -41t-2.5 -44q0 -24 5 -47.5t10.5 -43t10.5 -33.5t5 -20q0 -5 -11.5 -14t-28.5 -17t-36 -14t-34 -6q-21 0 -36 10.5t-25 27.5t-15 39.5t-5 45.5q0 15 1 29t3 29
q-7 -7 -24.5 -25t-37 -37.5l-36.5 -36.5t-24 -23q-65 -59 -108 -59q-20 0 -34 29t-14 71q0 51 13.5 106.5t31.5 106.5t36.5 91t27.5 60q18 38 40.5 76t49.5 68t59 48.5t70 18.5q26 0 47.5 -9t37 -24t24 -35t8.5 -42q0 -45 -22 -83.5t-51 -67t-58 -45t-43 -16.5q-5 0 -9 3.5
t-4 8.5q0 2 0.5 4t2.5 7t6 13l11 22q22 45 36.5 92t14.5 97q0 5 -0.5 13t-4.5 8q-6 0 -23 -25.5t-37 -75t-39.5 -121.5t-31.5 -165z" />
    <glyph glyph-name="i" unicode="i" horiz-adv-x="250" 
d="M227 370q0 -48 -8.5 -98.5t-20 -95t-22.5 -77.5t-17 -46q-12 -30 -24 -44t-35 -14q-11 0 -24 5.5t-24.5 19.5t-19.5 37t-8 58q0 38 7 80.5t18 83t24.5 76t27.5 59.5q13 23 26.5 36.5t35.5 13.5q29 0 46.5 -25t17.5 -69zM242 624q0 -26 -6.5 -50.5t-18 -44t-27.5 -31.5
t-35 -12q-24 0 -34.5 16t-10.5 35q0 37 14.5 70.5t29.5 48.5q9 10 18.5 13.5t21.5 3.5q26 0 37 -12.5t11 -36.5z" />
    <glyph glyph-name="j" unicode="j" horiz-adv-x="292" 
d="M283 624q0 -27 -6.5 -52t-18 -43.5t-27 -30t-33.5 -11.5q-21 0 -33 14.5t-12 37.5q0 17 5 40t15.5 43.5t26 35t36.5 14.5q47 0 47 -48zM75 105q1 9 4 31.5t5.5 47.5t5 47t3.5 31q10 72 28.5 113t37.5 60.5t35 24t22 4.5q25 0 41 -19t16 -54q0 -32 -8.5 -75.5t-21.5 -91.5
t-29 -96.5t-32 -91t-29.5 -75.5t-21.5 -48q-5 -9 -11.5 -20t-14 -20.5t-15 -16.5t-14.5 -7q-20 0 -35.5 35t-15.5 97q0 24 3 48t7.5 42.5t10.5 30.5t12 12q3 0 5.5 -1.5t11.5 -7.5z" />
    <glyph glyph-name="k" unicode="k" horiz-adv-x="500" 
d="M460 -53q13 -11 18 -17t12 -17q-11 -14 -24 -29.5t-27 -29t-28.5 -22t-27.5 -8.5q-25 0 -53 21t-51.5 54.5t-39 75t-15.5 82.5q0 6 1 10t4 8t9 8.5t17 11.5q42 28 56.5 48.5t14.5 39.5q0 9 -4 17t-15 8q-14 0 -29 -11.5t-30.5 -30.5t-30 -42.5t-25.5 -47.5
q-12 -26 -20 -41t-15 -23t-15 -10.5t-21 -2.5q-23 0 -39 9.5t-27 25.5t-16 36.5t-5 42.5q0 72 20 146.5t49 142t63 122t62 84.5q23 24 54 45t68 21q24 0 44.5 -9.5t35.5 -26t23 -38.5t8 -47q0 -37 -14 -72t-36 -62.5t-49 -44t-54 -16.5q-11 0 -14.5 4t-3.5 8t2.5 10t6.5 13
q25 45 34 93.5t9 98.5v7t-0.5 10t-2 8.5t-3.5 3.5q-5 0 -19.5 -22t-32.5 -68.5t-36.5 -118.5t-31.5 -173q31 41 61 65.5t55 37.5t45 17t32 4t23.5 -3.5t21 -11.5t15.5 -20t6 -30q0 -37 -12 -70t-29 -61.5t-37 -52t-35 -40.5q14 -24 34 -52.5t49 -54.5z" />
    <glyph glyph-name="l" unicode="l" horiz-adv-x="458" 
d="M243 264q29 50 47 100t28 92.5t13.5 73.5t3.5 43q0 2 -1 5.5t-4 3.5q-7 0 -19.5 -20t-27 -52.5t-29.5 -74t-27.5 -85.5t-20.5 -87t-8 -78t7.5 -49t21.5 -14q22 0 54 18.5t64 62.5q14 18 21 26t16 8q10 0 12.5 -7.5t2.5 -14.5q0 -40 -18.5 -79t-50 -69.5t-72.5 -49
t-85 -18.5q-31 0 -57.5 11t-46 30.5t-30.5 46.5t-11 59q0 42 12.5 92t33.5 101.5t48.5 101.5t56.5 91q12 16 31 40.5t42 47t49.5 38.5t53.5 16q22 0 39.5 -10t29.5 -27.5t18.5 -41t6.5 -50.5q0 -70 -23.5 -130.5t-56 -104.5t-67.5 -69.5t-59 -25.5q-5 0 -10 3.5t-5 9.5
q0 5 4 13.5t6 10.5z" />
    <glyph glyph-name="m" unicode="m" horiz-adv-x="771" 
d="M300 329q31 38 55.5 64.5t45 43t37 23.5t32.5 7q13 0 25 -7t21 -18t14 -25t5 -27q0 -14 -5.5 -35.5t-21.5 -65.5q-5 -14 -7.5 -22t-4.5 -14l-3.5 -10.5t-3.5 -11.5q18 16 40 35.5t57 57.5l24 27q30 32 47 41t33 9t27.5 -6.5t18.5 -17t10.5 -24t3.5 -26.5q0 -14 -2 -35
t-4 -40l-4 -34q-4 -32 -7 -68t-3 -57q0 -14 1 -28.5t6 -35.5q1 -4 3 -15t4 -22.5t4 -21.5t2 -12q0 -17 -21.5 -31t-49.5 -14q-32 0 -60 21.5t-42 51.5q-5 12 -7.5 25.5t-4 27t-2 25t-0.5 18.5q0 18 1 42.5t3 42.5l2 22l-144 -149q-26 -27 -43.5 -36t-33.5 -9q-29 0 -49.5 21
t-20.5 56q0 12 1 22t5.5 25t13 37.5t22.5 60.5q-12 -13 -22 -23t-19 -19.5t-19 -20.5t-22 -26l-13 -16q-16 -19 -33 -39t-35 -36.5t-35 -27t-33 -10.5q-17 0 -29 7.5t-20.5 20t-12.5 29t-4 33.5q0 25 7.5 56t18.5 64t24 65.5t24 58.5q14 33 26.5 57.5t26 40.5t29 23.5
t35.5 7.5q23 0 41 -11t18 -37q0 -21 -8 -47.5t-13 -41.5l-11 -31q-5 -14 -8.5 -24t-9.5 -30l14 14t11 12t10.5 13t13.5 16z" />
    <glyph glyph-name="n" unicode="n" horiz-adv-x="510" 
d="M264 292q39 43 65 67t44 35.5t30 14t23 2.5q27 0 44 -16t17 -63q0 -16 -0.5 -29t-1.5 -21l-2 -24q-3 -22 -4 -40.5t-1 -42.5q0 -32 2 -55.5t8 -45.5q5 -20 7 -26t2 -9q0 -8 -10 -16t-24 -14.5t-29 -10.5t-26 -4q-23 0 -40.5 12t-30.5 32.5t-19.5 47.5t-6.5 57
q0 17 1.5 31t4.5 37q-29 -29 -52 -54t-41.5 -47.5t-34 -42.5t-30.5 -39q-20 -25 -31.5 -35t-31.5 -10q-18 0 -31 7.5t-22 19t-13 26t-4 29.5q0 35 9.5 83t23.5 97.5t31.5 93.5t33.5 70q15 25 33 40t44 15q29 0 40 -19.5t11 -47.5q0 -33 -5.5 -68t-13.5 -71z" />
    <glyph glyph-name="o" unicode="o" horiz-adv-x="542" 
d="M312 356l-7 7t-4 7q0 6 12.5 15.5t30.5 19t38.5 16t37.5 6.5q22 0 41.5 -12t34 -33t23 -50t8.5 -62q0 -62 -25.5 -112t-66.5 -85t-92.5 -54t-103.5 -19q-22 0 -57.5 6.5t-69.5 24.5t-59 51.5t-25 87.5q0 59 27 116.5t73 103t106.5 73.5t127.5 28q6 0 16.5 -0.5t21 -2
t18 -5.5t7.5 -10q0 -11 -10.5 -14.5t-36.5 -7.5q-40 -6 -72.5 -29t-56 -56.5t-36.5 -74.5t-13 -83q0 -54 24.5 -87.5t62.5 -33.5q20 0 37.5 10t30.5 28t20.5 42t7.5 53q0 23 -6 43t-14 35.5t-17.5 26.5t-15.5 17z" />
    <glyph glyph-name="p" unicode="p" horiz-adv-x="552" 
d="M273 350q16 30 31 53t31 38.5t35 24t44 8.5q33 0 56.5 -15t39 -39.5t23 -56t7.5 -64.5q0 -59 -19.5 -115t-53 -99t-77.5 -69t-93 -26q-41 0 -62 19.5t-36 45.5q0 -1 -8 -25.5t-18.5 -57t-22.5 -65.5t-20 -51q-7 -15 -18 -27t-28 -12q-29 0 -43.5 28.5t-14.5 73.5
q0 39 7 94.5t19.5 116t30.5 120.5t39.5 107.5t46 77t51.5 29.5q23 0 34.5 -12.5t11.5 -35.5q0 -6 -1.5 -19.5t-3 -28.5t-3 -28.5t-1.5 -18.5zM221 112q2 -5 5.5 -12t9.5 -13t14.5 -10.5t21.5 -4.5q22 0 41 15t32 40.5t20.5 58t7.5 67.5q0 34 -5.5 59t-10.5 25t-21 -20.5
t-36.5 -52.5t-42 -72.5t-36.5 -79.5z" />
    <glyph glyph-name="q" unicode="q" horiz-adv-x="552" 
d="M315 92q-28 -21 -51 -37t-43.5 -26.5t-40 -16t-40.5 -5.5q-26 0 -46.5 8.5t-34.5 23t-21.5 33.5t-7.5 39q0 37 12 77t33 78t50 73.5t62 63.5q55 47 106 61.5t104 14.5q37 0 60.5 -5.5t37 -15.5t18.5 -24t5 -30q0 -24 -7 -42t-17 -31.5t-20.5 -22.5t-17.5 -14
q28 -17 38 -25.5t10 -25.5q0 -16 -5 -45.5t-14 -67t-21 -78.5t-25.5 -79t-28.5 -69.5t-30 -49.5q-8 -10 -21.5 -17.5t-28.5 -12.5t-29 -7.5t-21 -2.5q-14 0 -23.5 10t-9.5 27q0 16 5.5 41t15 56.5t21.5 68t26 75.5zM391 274q-17 0 -27.5 -0.5t-16 0.5t-7 2t-1.5 4t2 7t10 19
q19 35 25.5 57t6.5 27q0 4 -2 7.5t-7 3.5q-6 0 -18.5 -8t-28 -22t-32 -32t-30.5 -38q-18 -26 -29 -53.5t-17 -52t-8 -43.5t-2 -27q0 -3 1 -11t6 -8q4 0 11.5 4.5t15 11.5t14.5 14l12 12q15 17 26.5 29t21.5 22.5t21 21.5l26 26z" />
    <glyph glyph-name="r" unicode="r" horiz-adv-x="323" 
d="M232 450q12 14 20 18t16 4q15 0 23 -9.5t12.5 -23t5.5 -28t1 -24.5q0 -33 -5.5 -65.5t-15 -58.5t-21 -42t-23.5 -16q-6 0 -9 6t-4.5 14t-2 16t-0.5 11v28q0 6 -0.5 15.5t-2 19.5t-4.5 18t-8 11q-5 -2 -8 -15.5t-5 -32.5t-3 -39t-2 -35q-1 -14 -2.5 -38.5t-4.5 -50.5
t-7 -48t-9 -31q-14 -22 -41 -39.5t-53 -17.5q-18 0 -29 8.5t-17 21.5t-7.5 28t-1.5 27q0 38 5.5 80t14 83t19 78t21.5 64q3 8 10 22.5t17.5 28.5t25.5 24t34 10q23 0 31 -12.5t13 -29.5z" />
    <glyph glyph-name="s" unicode="s" horiz-adv-x="448" 
d="M146 135q-45 14 -74.5 37t-29.5 61q0 43 24 86t63 77t88 55.5t99 21.5q23 0 44.5 -8.5t37.5 -22.5t25.5 -33.5t9.5 -40.5q0 -22 -10.5 -45t-26.5 -41.5t-36.5 -30t-39.5 -11.5q-12 0 -22.5 5t-10.5 15q0 2 3 16q9 36 10.5 55.5t1.5 24.5q0 20 -6 32t-13 22
q-14 -9 -22.5 -16.5t-18.5 -23.5q-17 -24 -23.5 -48t-6.5 -41q0 -26 20 -37.5t70 -23.5q64 -15 94 -33.5t30 -58.5q0 -29 -14.5 -58.5t-49.5 -64.5q-17 -16 -38.5 -32.5t-48.5 -30t-58.5 -22t-67.5 -8.5q-13 0 -33.5 2.5t-40 10.5t-33.5 23t-14 41q0 22 12 43.5t31 38
t43 26.5t48 10q5 0 12 -1.5t7 -8.5q0 -3 -1.5 -6.5t-8.5 -17.5q-8 -14 -11.5 -29.5t-3.5 -26.5t4 -21t12 -17q11 0 24 6.5t24.5 18t19 27t7.5 33.5q0 21 -14 34.5t-55 26.5z" />
    <glyph glyph-name="t" unicode="t" horiz-adv-x="344" 
d="M318 569q-13 -29 -20 -54.5t-12 -41.5q21 -3 34 -5.5t20 -6.5t9 -9t2 -13q0 -28 -16 -51t-42 -31q-9 -3 -19 -4t-24 -3q-7 -21 -12 -45.5t-8.5 -48.5t-5 -44t-1.5 -30q0 -29 9 -44.5t20.5 -23t21 -9t11.5 -1.5h11.5t10.5 -1q4 0 4 -4q0 -5 -11 -19t-30.5 -30t-46.5 -28
t-60 -12q-48 0 -80 33.5t-32 92.5q0 6 0.5 15.5t3 25.5t7.5 40t15 59l3.5 14t5.5 21.5t5.5 21t3.5 13.5q-14 1 -25 6.5t-11 26.5q0 4 1 15.5t8.5 25.5t23.5 28.5t46 23.5q9 26 16.5 46t14 36t13.5 29.5t16 27.5q7 11 19 20.5t26.5 16t29 10.5t26.5 4q16 0 27.5 -8t11.5 -24
q0 -8 -3.5 -19.5t-7.5 -20.5z" />
    <glyph glyph-name="u" unicode="u" horiz-adv-x="531" 
d="M243 289q-5 -9 -12 -24.5t-14 -31.5t-12 -31t-5 -22q0 -10 7 -10q9 0 22 11.5t25 25.5q13 15 29 32t24 25l34 35q6 6 21.5 21t35 31t40 28t37.5 12q13 0 20 -7.5t11 -18t5 -22t1 -19.5q0 -2 -0.5 -13t-1.5 -24.5t-2 -26t-1 -16.5q-2 -19 -3 -42.5t-1 -45.5q0 -39 3 -64
l6 -55q1 -6 -5.5 -13t-18.5 -12t-28 -8.5t-34 -3.5q-29 0 -48.5 8.5t-31.5 23.5t-17 34.5t-5 40.5q0 12 1 23t2 23q-9 -6 -29.5 -22t-43.5 -33.5t-43.5 -33t-28.5 -20.5q-40 -26 -61.5 -37t-38.5 -11q-8 0 -17.5 3.5t-18 13t-14.5 26t-6 42.5q0 44 9.5 92.5t22.5 93
t26.5 79.5t21.5 51q4 8 11.5 21.5t20 26t30 21.5t41.5 9q29 0 49.5 -17t20.5 -53q0 -21 -7.5 -44t-22.5 -58z" />
    <glyph glyph-name="v" unicode="v" horiz-adv-x="427" 
d="M210 152q8 15 25.5 52t36.5 78t36 77t23 50q16 35 25.5 48t25.5 13q14 0 22 -9t12.5 -22t5.5 -27.5t1 -25.5q0 -21 -2.5 -40.5t-14.5 -46t-36.5 -64t-67.5 -94.5q-9 -12 -24 -31t-33 -39t-37 -38t-35 -29q-3 -2 -11.5 -6t-20.5 -4q-16 0 -27.5 8t-19.5 18.5t-12.5 21.5
t-6.5 18q-10 30 -17.5 63t-12 66.5t-7 65.5t-2.5 59q0 9 1 30.5t4.5 45.5t11.5 46t23 33q5 4 14.5 7t24.5 3q4 0 17 -1t28 -7.5t28 -20.5t17 -39q5 -31 5 -95v-164z" />
    <glyph glyph-name="w" unicode="w" horiz-adv-x="677" 
d="M289 361q4 10 9 24t10.5 27.5t11 24.5t10.5 16q14 14 33 18t35 4q14 0 24.5 -2.5t18 -10.5t11 -23t4.5 -40l1 -27q3 -73 14 -144t29 -142q5 12 10 27.5t9.5 40.5t7.5 63.5t3 97.5v22q0 41 10.5 66t39.5 44q14 9 30 15.5t29 6.5q23 0 29.5 -19t6.5 -47q0 -21 -3.5 -55.5
t-13 -79.5t-26 -98t-43.5 -111q-19 -41 -34.5 -65t-29 -36t-26 -15.5t-25.5 -3.5q-30 0 -53.5 15t-40.5 38.5t-28.5 53t-19.5 58.5t-12.5 55t-6.5 43q-31 -63 -53.5 -103.5t-41 -64t-34.5 -32t-33 -8.5q-9 0 -18 2.5t-18 10.5t-18 22.5t-18 37.5q-12 30 -20.5 65.5t-14 71
t-8 68t-2.5 56.5q0 65 25.5 100t82.5 35q31 0 41.5 -14.5t10.5 -59.5q0 -33 0.5 -59.5t2 -51.5t4 -51t7.5 -59q19 38 36 79t31 77z" />
    <glyph glyph-name="x" unicode="x" horiz-adv-x="500" 
d="M478 68q2 -3 6 -11.5t4 -15.5q0 -11 -8.5 -21t-23 -17.5t-32.5 -12t-37 -4.5q-30 0 -51 9t-37 25t-29 37.5t-26 47.5q-35 -32 -58.5 -53t-41 -33.5t-31 -17.5t-27.5 -5q-25 0 -44.5 17t-19.5 47q0 13 4 23t12 20t21.5 21t32.5 26q17 13 29.5 24t23 20.5t19 18.5t16.5 19
q-2 4 -12 26.5t-26 51t-36.5 56.5t-42.5 43q-19 13 -23.5 17t-4.5 10q0 10 19 16.5t48 6.5q27 0 50 -5.5t45 -17.5t43.5 -30.5t45.5 -44.5q13 15 29.5 33.5t35.5 34.5t40 27t43 11q8 0 17.5 -2t18 -5.5t14 -8t5.5 -10.5q0 -14 -12.5 -36.5t-37.5 -51.5q-18 -22 -29.5 -35
t-19 -23t-14 -19t-14.5 -22z" />
    <glyph glyph-name="y" unicode="y" horiz-adv-x="500" 
d="M169 -5q-16 27 -36.5 63t-38.5 79t-30.5 90t-12.5 95q0 16 1.5 33.5t5.5 33.5t10.5 30t16.5 23q12 11 34.5 19.5t46.5 8.5q13 0 22.5 -4t16.5 -14.5t11 -30t7 -50.5q6 -54 10 -90.5t8.5 -64.5t9.5 -53.5t13 -56.5q11 24 24 54.5t25.5 64t24.5 67.5t21 64q12 40 30 63
t36.5 34.5t33 14t18.5 2.5q15 0 22.5 -8.5t7.5 -18.5q0 -16 -16.5 -65t-43.5 -111.5t-61.5 -129t-71.5 -117.5q-36 -50 -72.5 -86t-70 -59t-63 -34.5t-51.5 -11.5q-4 0 -13 2t-9 16q0 12 3.5 26t10.5 29t18.5 29t26.5 25q16 11 35 20t40 19z" />
    <glyph glyph-name="z" unicode="z" horiz-adv-x="427" 
d="M251 147l-18 -27q20 0 55.5 2t73.5 16l17 6q9 4 16 4q8 0 11 -7.5t3 -18.5q0 -28 -10.5 -55t-33.5 -48.5t-59 -35t-88 -13.5q-35 0 -70 6t-63.5 17t-46.5 26.5t-18 34.5q0 7 1.5 13t9 15.5t22 26t40.5 44.5q51 57 80.5 90t47.5 55t30 39t28 40q-21 -7 -46 -15.5
t-51 -15.5t-51 -11.5t-45 -4.5q-18 0 -27.5 9t-9.5 22q0 19 10 40t27 39q21 23 39 28.5t38 5.5q6 0 23 -0.5t39 -1.5t46.5 -2t46.5 -2t38.5 -2.5t23.5 -2.5q14 -2 28 -9.5t14 -21.5q0 -7 -7.5 -23t-17 -32.5t-18 -29.5t-9.5 -15z" />
    <glyph glyph-name="braceleft" unicode="{" horiz-adv-x="385" 
d="M26 263q34 2 55 12.5t32.5 31.5t15.5 53t4 77q0 29 0.5 51t2 40t5 33.5t9.5 30.5q12 31 36 47.5t51 24t53.5 9t43.5 1.5h26v-117q-36 0 -55.5 -3t-29.5 -11.5t-12 -23t-3 -38.5q-2 -55 -3 -89.5t-4 -57.5t-8.5 -38.5t-15.5 -32.5q-13 -23 -29.5 -36t-30.5 -22
q31 -18 48.5 -40.5t26 -50t10.5 -60.5t4 -72q1 -29 1.5 -46.5t1.5 -27.5t1.5 -14.5t2.5 -8.5q4 -12 13.5 -18.5t22 -9.5t28 -3.5t31.5 -0.5v-117h-26q-20 0 -42 1t-44.5 6t-43 15.5t-37.5 30.5q-24 28 -29 70t-5 95q0 30 -0.5 51t-2 36.5t-4.5 27.5t-8 24q-8 18 -18.5 28
t-22.5 15.5t-25 7t-26 2.5v117z" />
    <glyph glyph-name="bar" unicode="|" horiz-adv-x="583" 
d="M344 674v-832h-105v832h105z" />
    <glyph glyph-name="braceright" unicode="}" horiz-adv-x="385" 
d="M25 -264v117q34 0 54 3.5t30 11.5t12.5 22.5t3.5 37.5q2 55 3.5 90t4.5 58t8 38t15 32q15 26 32 39t28 20q-31 20 -48.5 41t-26 47t-11 58.5t-4.5 75.5q-1 27 -1.5 44t-1 28t-1 16.5t-1.5 9.5q-7 24 -33 28t-63 4v117h26q19 0 41.5 -1t44.5 -6t43 -15.5t38 -30.5
q24 -28 29 -70t5 -95q0 -30 0.5 -51t2 -36.5t4.5 -27.5t8 -24q8 -18 18.5 -28.5t22.5 -16t25 -7t26 -2.5v-117q-34 -2 -55 -12t-32.5 -30.5t-15.5 -53t-4 -77.5q0 -29 -0.5 -51.5t-2 -40.5t-4.5 -33.5t-9 -30.5q-12 -30 -36 -46.5t-51.5 -24t-54 -9t-43.5 -1.5h-26z" />
    <glyph glyph-name="asciitilde" unicode="~" horiz-adv-x="667" 
d="M605 420q-2 -18 -6.5 -48t-19 -59t-43 -50t-77.5 -21q-11 0 -22.5 1t-27.5 5.5t-38.5 12.5t-54.5 22l-39 16q-44 19 -64 24t-35 5q-23 0 -37.5 -8t-23.5 -20.5t-13 -28t-7 -29.5h-34q2 36 7.5 66t24.5 57q15 20 31.5 31t31.5 16.5t27.5 6.5t19.5 1q29 0 67 -11.5
t83 -30.5q33 -14 54 -23t35 -14t23.5 -6.5t19.5 -1.5q26 0 41.5 9.5t24.5 23.5t12 28.5t5 25.5h35z" />
    <glyph glyph-name="uni00A0" unicode="&#xa0;" horiz-adv-x="245" 
 />
    <glyph glyph-name="exclamdown" unicode="&#xa1;" horiz-adv-x="365" 
d="M268 311q17 0 24.5 -10t7.5 -22q0 -9 -5.5 -35t-14.5 -60.5t-20 -74t-22 -76t-21 -65.5t-17 -43q-14 -28 -38 -43t-47.5 -22t-41.5 -8l-18 -1q-19 0 -26.5 7t-7.5 15t9 36.5t23 66.5t30.5 81t32 81t28 66t17.5 37q8 15 22.5 27.5t30 22t30.5 15t24 5.5zM301 493
q22 0 32 -11.5t10 -23.5q0 -5 -5 -26.5t-18.5 -44.5t-37.5 -41.5t-63 -18.5q-18 0 -30 8.5t-12 20.5q0 11 4 27t10.5 31.5t16.5 29.5t22 22q11 8 33 17.5t38 9.5z" />
    <glyph glyph-name="cent" unicode="&#xa2;" horiz-adv-x="385" 
d="M119 -5q-30 10 -48 25.5t-28 33t-13.5 33.5t-3.5 27q0 60 24 119t59.5 108t76.5 83t76 43q5 19 10.5 39.5t11.5 39.5t11.5 34t11.5 23q3 5 6.5 8.5t8.5 3.5q8 0 11 -8.5t3 -15.5q0 -8 -1 -16.5t-4 -22t-7.5 -33.5t-11.5 -50q8 -2 18.5 -6.5t20.5 -13t16.5 -21t6.5 -30.5
q0 -24 -10 -47t-26 -41.5t-35.5 -29.5t-38.5 -11q-5 0 -10.5 1.5t-5.5 9.5q0 3 1.5 6l6.5 13q6 13 11.5 29t5.5 43q0 3 -0.5 12t-5.5 9q-9 0 -22 -22.5t-25 -55.5t-20.5 -70t-8.5 -66t10.5 -49t26.5 -20q19 0 47.5 18.5t51.5 43.5q7 8 10 10.5t8 2.5q8 0 9.5 -5t1.5 -13
q0 -39 -20.5 -70.5t-49.5 -54.5t-61.5 -36.5t-57.5 -14.5q-5 -15 -13 -38t-17.5 -45.5t-19.5 -38.5t-19 -16q-12 0 -12 13q0 11 6.5 36t12.5 45z" />
    <glyph glyph-name="sterling" unicode="&#xa3;" horiz-adv-x="750" 
d="M593 346q13 0 19 -7t6 -18q0 -26 -21.5 -52.5t-49.5 -39.5q-8 -3 -17.5 -5.5t-22.5 -4t-31 -2t-43 -0.5h-11h-18.5t-18 -0.5t-10.5 -0.5l-41 -81q13 -2 35 -5.5t64 -3.5q60 0 98.5 4.5t65 13.5t46 21.5t41.5 28.5q4 3 7 5t8 2q8 0 8 -8q0 -12 -6 -27t-17 -32.5t-25.5 -35
t-32.5 -33.5q-30 -28 -54 -43.5t-43.5 -23t-34.5 -9t-27 -1.5q-10 0 -36.5 1.5t-67.5 5.5q-27 3 -44.5 5t-35 3.5t-38.5 3t-55 3.5q-30 -22 -54.5 -35t-53.5 -13q-27 0 -43.5 15.5t-16.5 42.5q0 26 12 44t27 31q25 21 50 29t46 13l33 83q-13 6 -24 13.5t-11 18.5
q0 16 11 39.5t23 37.5q13 15 27 17t24 1q17 38 38 80t50 83q31 43 68.5 74.5t76 52t75.5 30t66 9.5q27 0 49.5 -8.5t39.5 -23t26.5 -34.5t9.5 -43q0 -48 -23.5 -85.5t-55.5 -63t-64.5 -39t-50.5 -13.5q-8 0 -15.5 4t-7.5 13q0 6 3.5 11.5t14.5 16.5q6 7 20.5 27t28.5 45
t25 52t11 49q0 5 -2.5 11.5t-11.5 6.5q-14 0 -29 -12t-29 -29t-26.5 -35t-19.5 -30q-24 -41 -39.5 -76.5t-30.5 -73.5h156z" />
    <glyph glyph-name="currency" unicode="&#xa4;" horiz-adv-x="698" 
d="M537 587l68 -70l-64 -64q14 -23 25 -51.5t11 -70.5q0 -47 -12.5 -76.5t-23.5 -47.5l64 -63l-68 -69l-65 63q-21 -12 -50 -24t-73 -12t-71.5 11t-51.5 25l-64 -63l-69 69l64 63q-15 25 -25.5 53t-10.5 70t10.5 69.5t25.5 53.5l-64 64l68 70l65 -65q24 14 52 25t70 11
q45 0 74.5 -12.5t49.5 -23.5zM218 333q0 -29 10 -53.5t28 -42.5t42 -28t51 -10t51 10.5t42 28t28 41.5t10 51t-10.5 51t-28.5 42t-41.5 28t-50.5 10t-51 -10.5t-41.5 -28.5t-28 -41t-10.5 -48z" />
    <glyph glyph-name="yen" unicode="&#xa5;" horiz-adv-x="688" 
d="M279 600l2 -24t3 -25l5 -37q1 -8 3 -27t4 -40t4 -40t3 -26q14 -90 26.5 -141.5t22.5 -79.5q10 20 24.5 50.5t29.5 63.5t28 65.5t22 57.5l11 32q19 54 35.5 86t39.5 58q13 14 29.5 28t33 25t33 17.5t29.5 6.5q5 0 10.5 -3t5.5 -11q0 -6 -3.5 -18t-9 -25.5t-11 -26.5
t-8.5 -21q-21 -50 -42.5 -97t-44.5 -93.5t-49 -94.5t-56 -100h165q20 0 26.5 -4.5t6.5 -18.5q0 -16 -7 -20.5t-26 -4.5h-194l-24 -38h218q20 0 26.5 -4t6.5 -18q0 -16 -7 -21t-26 -5h-250q-42 -58 -80.5 -96.5t-62.5 -54.5q-47 -30 -87.5 -39.5t-63.5 -9.5t-38 9t-15 23
q0 11 5.5 27t14 32.5t17.5 30.5t17 22q5 5 12 8.5t23 3.5h18q37 0 65 12.5t58 31.5h-227q-25 0 -31.5 4t-6.5 18q0 17 7.5 21.5t30.5 4.5h200l-20 38h-180q-25 0 -31.5 3.5t-6.5 17.5q0 17 7.5 22t30.5 5h156q-30 59 -49 118.5t-29.5 111t-14.5 93t-4 64.5q0 26 6 44.5
t21 29.5q16 12 35.5 21.5t38 16t34 9.5t23.5 3q14 0 21.5 -10.5t9.5 -42.5z" />
    <glyph glyph-name="brokenbar" unicode="&#xa6;" horiz-adv-x="583" 
d="M344 199v-357h-105v357h105zM344 674v-357h-105v357h105z" />
    <glyph glyph-name="section" unicode="&#xa7;" horiz-adv-x="542" 
d="M163 99q-25 21 -41 39t-25.5 34t-13 31.5t-3.5 31.5q0 25 5.5 48t14 41.5t17.5 33t16 22.5q10 12 21 20t25 16q-11 17 -22.5 39.5t-11.5 59.5t15.5 71.5t45 61.5t71 43.5t93.5 16.5q30 0 60 -6t54 -19t38.5 -34.5t14.5 -52.5q0 -23 -8.5 -44t-24 -37t-36.5 -25.5
t-45 -9.5q-5 0 -15.5 1.5t-10.5 10.5q0 2 3 13t5 19q3 8 5.5 25t2.5 34q0 21 -5 38t-15 17q-9 0 -23 -9.5t-27 -24.5t-22 -32.5t-9 -32.5q0 -16 6.5 -28t19 -22.5t30.5 -21.5t42 -24q13 -8 33 -20.5t39 -32.5t32 -48.5t13 -67.5q0 -37 -12 -66.5t-29.5 -52.5t-37 -39.5
t-34.5 -28.5q10 -19 18.5 -41t8.5 -51t-13.5 -64.5t-43 -67.5t-75.5 -53.5t-111 -21.5q-47 0 -79 10.5t-51 26t-27 33t-8 32.5q0 19 12 38.5t31 35t42 25t45 9.5q11 0 15 -5.5t4 -10.5q0 -4 -2 -9.5t-3 -7.5q-8 -15 -13.5 -29t-5.5 -31q0 -19 8.5 -33t19.5 -14
q9 0 23.5 10.5t27.5 27.5t22.5 37.5t9.5 40.5q0 9 -2.5 17.5t-9 18t-18 21t-29.5 27.5zM264 342q-8 -17 -12.5 -31t-4.5 -30q0 -33 22.5 -57.5t69.5 -56.5q16 17 24.5 29.5t8.5 30.5q0 24 -12 42.5t-29 32.5t-35.5 24t-31.5 16z" />
    <glyph glyph-name="dieresis" unicode="&#xa8;" 
d="M159 568q-5 0 -12.5 1t-14 4t-11 8.5t-4.5 14.5q0 10 5 23.5t12.5 27t15 24t13.5 14.5q7 5 20.5 9.5t29.5 8.5t32.5 6t28.5 2q9 0 16 -3t7 -13q0 -9 -5 -26t-13 -34t-19.5 -31.5t-24.5 -20.5q-17 -8 -38.5 -11.5t-37.5 -3.5zM373 550q-8 0 -20.5 1t-24.5 5t-20.5 12
t-8.5 22q0 10 3 21.5t7 21.5t8.5 18t8.5 12q10 9 26 13.5t44 4.5q34 0 48.5 -5.5t14.5 -20.5q0 -9 -4 -22t-10 -26.5t-14 -25t-16 -18.5q-7 -6 -16.5 -9.5t-25.5 -3.5z" />
    <glyph glyph-name="copyright" unicode="&#xa9;" horiz-adv-x="771" 
d="M564 225q-20 -64 -64 -99t-112 -35q-43 0 -78.5 14.5t-61.5 41.5t-40.5 65.5t-14.5 86.5q0 45 13.5 83.5t39 66.5t62 44t82.5 16q63 0 109.5 -32.5t62.5 -94.5l-88 -16q-6 24 -17 38.5t-23.5 22t-25 10t-21.5 2.5q-34 0 -53.5 -16.5t-29 -39t-11.5 -45t-2 -35.5
q0 -9 1.5 -32.5t10 -47.5t27.5 -42.5t54 -18.5q25 0 41.5 10.5t26.5 25t15 29.5t7 23zM385 674q77 0 145 -29t119 -79.5t80.5 -118.5t29.5 -146q0 -77 -29.5 -145t-80 -118.5t-118.5 -80t-146 -29.5q-77 0 -145 29.5t-118.5 80t-80 118.5t-29.5 145q0 78 29.5 146
t80.5 118.5t118.5 79.5t144.5 29zM385 602q-62 0 -116.5 -23.5t-95.5 -64.5t-64.5 -95.5t-23.5 -117.5q0 -62 23.5 -117t64.5 -96t95.5 -64.5t116.5 -23.5t117 23.5t96 64.5t64.5 96t23.5 117q0 63 -24 117.5t-65 95.5t-95.5 64.5t-116.5 23.5z" />
    <glyph glyph-name="ordfeminine" unicode="&#xaa;" horiz-adv-x="365" 
d="M315 458q-48 -51 -80 -76.5t-63 -25.5q-17 0 -31.5 7t-25.5 18.5t-17 25.5t-6 29q0 35 19.5 76t52 76.5t73.5 59t85 23.5q36 0 64 -16t28 -43q0 -10 -4.5 -19.5t-10.5 -20.5q17 0 22 -2.5t5 -17.5q0 -5 -0.5 -16t-1.5 -23t-1.5 -23t-0.5 -15q0 -41 12 -78
q-8 -9 -26.5 -23t-44.5 -14q-18 0 -28 9t-14.5 23.5t-5 31.5t-0.5 34zM333 530q-8 -2 -18 -5t-21 -3q-4 0 -7.5 1t-3.5 5q0 3 1 6t7 14t9.5 20.5t3.5 23.5q0 17 -4.5 26t-9.5 9t-18.5 -13t-27.5 -33t-24.5 -44.5t-10.5 -48.5q0 -14 7.5 -25.5t16.5 -11.5q8 0 20 7.5t24.5 18
t23.5 21.5l19 19z" />
    <glyph glyph-name="guillemotleft" unicode="&#xab;" horiz-adv-x="323" 
d="M142 271q-20 -17 -30.5 -29t-25.5 -32q7 -15 13 -25t13 -18t15.5 -15.5t20.5 -17.5q3 -2 10.5 -9t7.5 -14t-7.5 -12.5t-15.5 -5.5q-4 0 -13.5 3t-22 11t-27 22t-28.5 36q-10 14 -19 31t-9 25q0 10 11 24.5t28 30t37.5 30.5t39 27t32.5 19.5t18 7.5q7 0 13 -5.5t6 -10.5
q0 -6 -6 -14.5t-15 -17.5t-18 -17t-15 -14zM214 206q11 -10 23 -21.5t22 -23t16.5 -21.5t6.5 -18q0 -7 -7 -13t-15 -6q-12 0 -29.5 15t-34 33.5t-28 36t-11.5 22.5q0 6 17.5 27t40.5 44t46 41t34 18q6 0 12.5 -7.5t6.5 -15.5q0 -3 -1.5 -7t-9 -12t-22 -23t-40.5 -42z" />
    <glyph glyph-name="logicalnot" unicode="&#xac;" horiz-adv-x="667" 
d="M606 505v-343h-105v238h-440v105h545z" />
    <glyph glyph-name="uni00AD" unicode="&#xad;" horiz-adv-x="250" 
d="M84 152q-26 0 -42.5 14.5t-16.5 34.5q0 16 7 37.5t18 32.5q14 14 41 17.5t52 3.5q33 0 52 -3.5t29 -9.5t12.5 -13.5t2.5 -15.5q0 -18 -6 -30t-13.5 -20t-15.5 -12l-12 -6q-9 -4 -23 -9.5t-29.5 -10t-30.5 -7.5t-25 -3z" />
    <glyph glyph-name="registered" unicode="&#xae;" horiz-adv-x="771" 
d="M216 499h130q33 0 56.5 -1.5t40 -4.5t28 -7t20.5 -9q21 -11 34 -36t13 -54q0 -33 -13.5 -54t-31 -33t-35.5 -17.5t-27 -7.5q9 -3 18 -7.5t15 -10.5q6 -7 11 -13.5t12.5 -18t19.5 -31.5t31 -53l23 -40h-108l-17 32q-23 42 -37.5 68t-28 40t-28 18t-36.5 2v-160h-90v398z
M306 329h38q18 0 36 1t32.5 6.5t23.5 16t9 28.5q0 19 -10 30t-25 15.5t-32.5 5.5t-31.5 1h-40v-104zM385 674q77 0 145 -29t119 -79.5t80.5 -118.5t29.5 -146q0 -77 -29.5 -145t-80 -118.5t-118.5 -80t-146 -29.5q-77 0 -145 29.5t-118.5 80t-80 118.5t-29.5 145
q0 78 29.5 146t80.5 118.5t118.5 79.5t144.5 29zM386 602q-62 0 -116.5 -23.5t-95.5 -64t-65 -95.5t-24 -118q0 -62 23.5 -117t64.5 -96t96 -64.5t117 -23.5t117 23.5t96 64.5t64.5 96t23.5 117q0 63 -24 118t-65 95.5t-96 64t-116 23.5z" />
    <glyph glyph-name="macron" unicode="&#xaf;" 
d="M217 556q-23 0 -34 8.5t-11 31.5q0 18 8.5 30t20.5 19.5t24.5 10.5t20.5 3h172q6 0 13.5 -1.5t14 -5t10.5 -11.5t4 -22q0 -18 -8.5 -30t-20 -19.5t-24 -10.5t-20.5 -3h-170z" />
    <glyph glyph-name="degree" unicode="&#xb0;" horiz-adv-x="396" 
d="M62 533q0 30 10.5 55.5t29 44t43.5 29t53 10.5t53 -10.5t43 -29t28.5 -43t10.5 -52.5q0 -29 -10.5 -53.5t-29 -43t-43 -29t-51.5 -10.5q-29 0 -53.5 11t-43.5 29t-29.5 42t-10.5 50zM115 539q0 -36 24 -60.5t59 -24.5t58.5 24t23.5 59t-24 58.5t-58 23.5q-17 0 -32 -6.5
t-26.5 -17.5t-18 -25.5t-6.5 -30.5z" />
    <glyph glyph-name="plusminus" unicode="&#xb1;" horiz-adv-x="667" 
d="M606 105v-105h-545v105h545zM281 470v220h105v-220h220v-105h-220v-220h-105v220h-220v105h220z" />
    <glyph glyph-name="uni00B2" unicode="&#xb2;" horiz-adv-x="385" 
d="M187 650q-11 -18 -17 -34t-6 -41q0 -11 1 -20t2 -15q1 -3 2.5 -13t1.5 -12q0 -11 -11 -11q-12 0 -24.5 7t-22 19t-15.5 27.5t-6 32.5q0 22 10 43t28 37t42 25.5t53 9.5q49 0 80.5 -26t31.5 -64q0 -48 -37 -104t-104 -135q13 -2 20 -3t18 -1q27 0 48.5 3.5t50.5 9.5
q-5 -17 -12.5 -31.5t-18.5 -28.5q-25 -32 -52 -43.5t-65 -11.5q-24 0 -45.5 4t-38 10t-26 14t-9.5 16q0 4 1.5 8t6.5 11t15.5 18.5t27.5 31.5q42 47 71.5 99t29.5 103q0 27 -10 40.5t-21 24.5z" />
    <glyph glyph-name="uni00B3" unicode="&#xb3;" horiz-adv-x="385" 
d="M169 550q-1 0 -2 -0.5t-3 -0.5q-14 0 -29 18.5t-15 41.5q0 18 10 35.5t28.5 31t44 22t56.5 8.5q18 0 37 -4t34 -13t24.5 -24t9.5 -37q0 -35 -25 -57t-58 -41q10 -1 25 -3t29 -9t24 -19.5t10 -34.5q0 -33 -21 -67t-54 -62.5t-74.5 -46.5t-82.5 -18q-16 0 -33 4.5
t-30.5 14.5t-22.5 25.5t-9 37.5q0 33 16.5 55t37.5 35.5t41 19.5t28 6q5 0 8.5 -1.5t3.5 -6.5q0 -2 -2.5 -5t-10.5 -13q-30 -34 -30 -80q0 -38 18 -38q12 0 29 11t32.5 29t26 40t10.5 45q0 26 -14.5 34t-31.5 12q-9 3 -15 6.5t-6 9.5q0 5 4 9.5t12 12.5q5 4 13.5 13t17 21.5
t14.5 28.5t6 34q0 19 -11 19t-28.5 -17t-31.5 -57q-1 -2 -4.5 -12.5t-5.5 -12.5z" />
    <glyph glyph-name="acute" unicode="&#xb4;" 
d="M199 568q0 7 7.5 12.5t21.5 14.5q10 6 18 12.5t16 15t18 19.5t24 27q7 7 23.5 14t37 12.5t42.5 8.5t40 3q6 0 12 -1.5t6 -9.5q0 -22 -26 -47.5t-63 -47t-78 -36t-70 -14.5q-5 0 -17 2.5t-12 14.5z" />
    <glyph glyph-name="mu" unicode="&#xb5;" horiz-adv-x="615" 
d="M264 474l-47 -227q-5 -20 -6.5 -35t-1.5 -29q0 -41 22.5 -65.5t56.5 -24.5q33 0 54 16.5t34.5 40t20.5 50t11 47.5l47 227h139l-99 -474h-125l10 48q-30 -31 -52 -45.5t-53 -14.5q-23 0 -39 7t-27.5 17t-19 21.5t-13.5 21.5l-46 -216h-140l134 635h140z" />
    <glyph glyph-name="paragraph" unicode="&#xb6;" horiz-adv-x="542" 
d="M198 270q-30 3 -62 10t-64 32q-42 32 -57 75t-15 83q0 57 21.5 96.5t53.5 63.5q42 31 78.5 37.5t77.5 6.5h309v-83h-70v-831h-83v831h-106v-831h-83v510z" />
    <glyph glyph-name="periodcentered" unicode="&#xb7;" horiz-adv-x="198" 
d="M112 418q35 0 58.5 -23t23.5 -56q0 -34 -23.5 -57t-55.5 -23q-34 0 -57 23.5t-23 56.5q0 16 6.5 30.5t17 25t24.5 17t29 6.5z" />
    <glyph glyph-name="cedilla" unicode="&#xb8;" 
d="M58 -57q-15 0 -29 1.5t-14 12.5q0 18 21.5 32.5t48.5 14.5q30 0 46 -18.5t16 -39.5q0 -17 -10 -33.5t-25.5 -29.5t-35.5 -21t-39 -8q-14 0 -24.5 6t-10.5 15q0 5 10 8q15 5 24 12.5t13.5 16t6 17t2.5 14.5z" />
    <glyph glyph-name="uni00B9" unicode="&#xb9;" horiz-adv-x="385" 
d="M200 588q-15 -6 -19.5 -7.5t-7.5 -1.5q-6 0 -11.5 5t-5.5 16t4.5 21t12.5 16q2 1 8.5 4.5t14 7.5t15 7.5t11.5 5.5l54 26q8 4 22.5 10.5t24.5 6.5q11 0 17 -8t6 -18q0 -8 -2.5 -16t-6.5 -18q-5 -12 -10.5 -28t-10.5 -31.5t-8.5 -27t-4.5 -14.5l-59 -197q-7 -20 -12.5 -32
t-13.5 -19q-15 -14 -34.5 -20t-29.5 -6q-17 0 -30 10.5t-13 27.5q0 5 2 13t9 28l8 18l84 227z" />
    <glyph glyph-name="ordmasculine" unicode="&#xba;" horiz-adv-x="354" 
d="M271 593q29 28 50 32.5t26 4.5q16 0 29.5 -8t23 -22t14.5 -32.5t5 -38.5q0 -36 -14.5 -68t-39.5 -56t-58.5 -38t-71.5 -14q-3 0 -25.5 1.5t-48 12t-46.5 33t-21 64.5q0 39 18 76t48 66.5t70 47t84 17.5h8t13 -1.5t12 -4t5 -7.5q0 -6 -5 -7.5t-28 -5.5q-28 -4 -49 -20.5
t-35.5 -39.5t-21.5 -49.5t-7 -49.5q0 -34 15.5 -55.5t41.5 -21.5t44 24.5t18 59.5q0 20 -5.5 35.5t-13.5 27.5t-17.5 21t-17.5 16z" />
    <glyph glyph-name="guillemotright" unicode="&#xbb;" horiz-adv-x="323" 
d="M181 314q-5 5 -10.5 12.5t-5.5 12.5q0 6 5 12t10 6q10 0 31.5 -18t43.5 -41.5t38 -46t16 -32.5q0 -8 -11.5 -21t-29 -27t-38.5 -28.5t-39.5 -26t-32.5 -18.5t-17 -7q-7 0 -12.5 5t-5.5 10q0 8 6.5 17.5t17 19t23.5 19.5t25 19q22 17 35 30.5t13 19.5q0 3 -12.5 22.5
t-49.5 60.5zM116 238q-9 13 -17 23t-29 30q-12 11 -18.5 18.5t-6.5 13.5t4.5 10.5t11.5 4.5q15 0 33.5 -13t34.5 -30.5t27 -34.5t11 -24q0 -12 -16 -32.5t-37 -40.5t-42.5 -35t-32.5 -15q-8 0 -11.5 6.5t-3.5 15.5q0 10 7.5 22t18.5 23.5t24.5 23t25.5 20.5z" />
    <glyph glyph-name="onequarter" unicode="&#xbc;" horiz-adv-x="750" 
d="M492 425q-15 -22 -38 -53t-49.5 -66t-55 -72.5t-56 -72.5t-51.5 -65t-41 -50q-27 -32 -44.5 -49t-28.5 -25t-18.5 -9.5t-14.5 -1.5q-14 0 -24 9.5t-10 20.5q0 10 6.5 24.5t14.5 28.5q16 30 35.5 62l39 64t39 62t37.5 56l205 305q13 19 29.5 39t34.5 35.5t36 25.5t34 10
q17 0 32 -17.5t15 -42.5q0 -19 -14 -47t-46 -75zM446 148q16 47 28.5 77.5t25.5 51.5q8 13 20.5 22.5t26 15.5t27 8.5t23.5 2.5q21 0 21 -13q0 -5 -4.5 -14.5t-10.5 -19t-12 -17.5t-8 -11q-15 -22 -26 -38t-19.5 -29t-15.5 -25.5t-15 -28.5q29 -1 44 0t29 3q7 18 14 32.5
t17.5 25t27 16.5t43.5 6q28 0 28 -15q0 -5 -2 -13.5t-8 -23.5l-11 -28h14q2 0 7.5 -0.5t5.5 -6.5q0 -7 -12.5 -26.5t-38.5 -36.5q-15 -41 -23 -80t-13 -61q-32 -18 -51 -26t-37 -8q-8 0 -20.5 4.5t-12.5 21.5t9 42t15 41l22 56q-22 -2 -37.5 -3t-39.5 -1q-35 0 -44.5 5.5
t-9.5 16.5q0 8 2.5 16.5t10.5 31.5zM113 588q-15 -6 -19.5 -7.5t-7.5 -1.5q-6 0 -11.5 5t-5.5 16t4.5 21t12.5 16q2 1 8.5 4.5t14 7.5t15 7.5t11.5 5.5l54 26q8 4 22.5 10.5t24.5 6.5q11 0 17 -8t6 -18q0 -8 -2.5 -16t-6.5 -18q-5 -12 -10.5 -28t-10.5 -31.5t-8.5 -27
t-4.5 -14.5l-59 -197q-6 -20 -12 -32t-14 -19q-16 -13 -35 -19.5t-29 -6.5q-17 0 -30 10.5t-13 27.5q0 5 2 13t9 28l8 18l84 227z" />
    <glyph glyph-name="onehalf" unicode="&#xbd;" horiz-adv-x="750" 
d="M492 425q-18 -25 -40 -54.5t-45 -60t-45.5 -60t-40.5 -53t-30.5 -40t-15.5 -20.5q-43 -59 -72 -94t-49 -53t-34 -23.5t-26 -5.5q-14 0 -23.5 9t-9.5 21q0 9 6.5 24t14.5 29q27 52 66.5 115t84.5 129l205 305q5 8 19 26t33 37t40.5 33t41.5 14q17 0 32 -17.5t15 -41.5
q0 -29 -21 -64.5t-59 -88.5zM113 588q-15 -6 -19.5 -7.5t-7.5 -1.5q-6 0 -11.5 5t-5.5 16t4.5 21t12.5 16q2 1 8.5 4.5t14 7.5t15 7.5t11.5 5.5l54 26q8 4 22.5 10.5t24.5 6.5q11 0 17 -8t6 -18q0 -8 -2.5 -16t-6.5 -18q-5 -12 -10.5 -28t-10.5 -31.5t-8.5 -27t-4.5 -14.5
l-59 -197q-6 -20 -12 -32t-14 -19q-16 -13 -35 -19.5t-29 -6.5q-17 0 -30 10.5t-13 27.5q0 5 2 13t9 28l8 18l84 227zM565 270q-11 -18 -17 -34t-6 -41q0 -11 1 -20t2 -15q1 -3 2.5 -13t1.5 -12q0 -11 -11 -11q-12 0 -24.5 7t-22 19t-15.5 27.5t-6 32.5q0 22 10 43t28 37
t42 25.5t53 9.5q49 0 80.5 -26t31.5 -64q0 -48 -37 -104t-104 -135q13 -2 20 -3t18 -1q27 0 48.5 3.5t50.5 9.5q-5 -17 -12.5 -31.5t-18.5 -28.5q-25 -32 -52 -43.5t-65 -11.5q-24 0 -45.5 4t-38 10t-26 14t-9.5 16q0 4 1.5 8t6.5 11t15.5 18.5t27.5 31.5q42 47 71.5 99
t29.5 103q0 27 -10 40.5t-21 24.5z" />
    <glyph glyph-name="threequarters" unicode="&#xbe;" horiz-adv-x="854" 
d="M601 426q-15 -21 -36 -49.5t-46 -61.5t-51.5 -68t-52.5 -68t-49.5 -62.5t-40.5 -50.5q-24 -29 -41.5 -49t-31.5 -32t-25.5 -17t-23.5 -5q-13 0 -23 8.5t-10 20.5q0 10 6.5 24.5t14.5 28.5q29 54 67.5 116.5t83.5 128.5l205 304q13 19 29.5 39t34.5 35.5t36 25.5t34 10
q17 0 32 -17t15 -42q0 -17 -12.5 -44t-47.5 -78zM152 550q-1 0 -2 -0.5t-3 -0.5q-14 0 -29 18.5t-15 41.5q0 18 10 35.5t28.5 31t44 22t56.5 8.5q18 0 37 -4t34 -13t24.5 -24t9.5 -37q0 -35 -25 -57t-58 -41q10 -1 25 -3t29 -9t24 -19.5t10 -34.5q0 -33 -21 -67t-54 -62.5
t-74.5 -46.5t-82.5 -18q-16 0 -33 4.5t-30.5 14.5t-22.5 25.5t-9 37.5q0 33 16.5 55t37.5 35.5t41 19.5t28 6q5 0 8.5 -1.5t3.5 -6.5q0 -2 -2.5 -5t-10.5 -13q-30 -34 -30 -80q0 -38 18 -38q12 0 29 11t32.5 29t26 40t10.5 45q0 26 -14.5 34t-31.5 12q-9 3 -15 6.5t-6 9.5
q0 5 4 9.5t12 12.5q5 4 13.5 13t17 21.5t14.5 28.5t6 34q0 19 -11 19t-28.5 -17t-31.5 -57q-1 -2 -4.5 -12.5t-5.5 -12.5zM550 148q17 47 29 77.5t25 51.5q8 13 20.5 22t26 15t27 9t23.5 3q21 0 21 -13q0 -5 -5 -14.5t-11 -19t-11.5 -17.5t-7.5 -11q-16 -22 -27 -37.5
t-19 -29t-15 -26t-15 -28.5q29 -1 44 0t29 3q7 18 13.5 32.5t17.5 25t27.5 16.5t43.5 6q28 0 28 -15q0 -5 -2 -13.5t-8 -23.5l-11 -28h14q2 0 7.5 -0.5t5.5 -6.5q0 -7 -12.5 -26.5t-38.5 -36.5q-15 -41 -23.5 -80t-12.5 -61q-32 -18 -51 -26t-38 -8q-8 0 -20 4.5t-12 21.5
t9 42t15 41l22 56q-22 -2 -37.5 -3t-39.5 -1q-35 0 -44.5 5.5t-9.5 16.5q0 8 2 16.5t10 31.5z" />
    <glyph glyph-name="questiondown" unicode="&#xbf;" horiz-adv-x="406" 
d="M233 -109q6 0 15.5 13.5t15.5 26.5q17 37 22.5 69.5t5.5 49.5t-2 27.5t-4 14.5q-1 2 -2.5 7.5t-1.5 7.5q0 5 4 7t8 2q15 0 30.5 -12t28 -31.5t20.5 -45t8 -51.5q0 -33 -12 -61.5t-34.5 -49.5t-54.5 -33t-72 -12q-38 0 -73 11t-62 31t-43.5 47t-16.5 59q0 38 14.5 70.5
t35.5 60t45 49t43 37.5q-6 0 -21 -0.5t-31.5 -0.5t-31 -0.5t-20.5 -0.5q-17 0 -17 12q0 10 12 30t27 34q29 29 75 41t105 12q6 0 21.5 -0.5t32 -4t29 -10.5t12.5 -20q0 -9 -8 -20t-28 -36q-52 -63 -86.5 -130t-34.5 -130q0 -20 6 -33.5t13.5 -21.5t15 -11.5t11.5 -3.5z
M314 498q20 0 33 -13.5t13 -28.5q0 -12 -3.5 -26t-9 -26.5t-11.5 -22.5t-11 -14q-21 -19 -50 -27t-54 -8q-14 0 -29.5 5t-15.5 25q0 5 2 18t6 28t10 29.5t14 21.5q9 8 24.5 15t32 12.5t30.5 8.5t19 3z" />
    <glyph glyph-name="Agrave" unicode="&#xc0;" horiz-adv-x="729" 
d="M476 168q-33 -14 -54 -19.5t-49 -4.5l-121 4l-22 -42q-14 -28 -28.5 -48.5t-33.5 -34t-43 -20t-58 -6.5q-23 0 -36.5 4.5t-13.5 18.5q0 6 3.5 14t9 17t11 17.5t10.5 14.5q11 16 18 25.5t12 16t9 12.5t9 14q-6 1 -15 3.5t-17 6.5t-13.5 9.5t-5.5 14.5q0 10 7 22.5t17 25.5
t22 23.5t22 16.5q11 6 25 7.5t43 2.5l23 43q24 43 53.5 96t70.5 124l28 49l-30 54q12 7 36 16t74 9q40 0 66 -16t43 -49t28.5 -84t23.5 -121q14 -86 47.5 -173.5t80.5 -177.5q-38 -26 -66 -40t-58 -14q-25 0 -42.5 9.5t-31 28.5t-25 47.5t-23.5 65.5zM401 467l-90 -190h133z
M445 888q4 0 7 -1.5t8 -6t12 -13.5t18 -23q22 -27 41 -40.5t43 -27.5q1 -1 5.5 -4t9.5 -7t8.5 -8.5t3.5 -9.5q0 -6 -5 -11t-13 -8.5t-17.5 -5.5t-18.5 -2q-26 0 -58.5 8t-61.5 21t-49 29t-20 33q0 10 9.5 23t23.5 25t28.5 20.5t25.5 8.5z" />
    <glyph glyph-name="Aacute" unicode="&#xc1;" horiz-adv-x="729" 
d="M476 168q-33 -14 -54 -19.5t-49 -4.5l-121 4l-22 -42q-14 -28 -28.5 -48.5t-33.5 -34t-43 -20t-58 -6.5q-23 0 -36.5 4.5t-13.5 18.5q0 6 3.5 14t9 17t11 17.5t10.5 14.5q11 16 18 25.5t12 16t9 12.5t9 14q-6 1 -15 3.5t-17 6.5t-13.5 9.5t-5.5 14.5q0 10 7 22.5t17 25.5
t22 23.5t22 16.5q11 6 25 7.5t43 2.5l23 43q24 43 53.5 96t70.5 124l28 49l-30 54q12 7 36 16t74 9q40 0 66 -16t43 -49t28.5 -84t23.5 -121q14 -86 47.5 -173.5t80.5 -177.5q-38 -26 -66 -40t-58 -14q-25 0 -42.5 9.5t-31 28.5t-25 47.5t-23.5 65.5zM401 467l-90 -190h133z
M367 739q0 7 7.5 12.5t21.5 14.5q10 6 18 12.5t16 15t18 19.5t24 27q7 7 23.5 14t37 12.5t42.5 8.5t40 3q6 0 12 -1.5t6 -9.5q0 -22 -26 -47.5t-63 -47t-78 -36t-70 -14.5q-5 0 -17 2.5t-12 14.5z" />
    <glyph glyph-name="Acircumflex" unicode="&#xc2;" horiz-adv-x="729" 
d="M476 168q-33 -14 -54 -19.5t-49 -4.5l-121 4l-22 -42q-14 -28 -28.5 -48.5t-33.5 -34t-43 -20t-58 -6.5q-23 0 -36.5 4.5t-13.5 18.5q0 6 3.5 14t9 17t11 17.5t10.5 14.5q11 16 18 25.5t12 16t9 12.5t9 14q-6 1 -15 3.5t-17 6.5t-13.5 9.5t-5.5 14.5q0 10 7 22.5t17 25.5
t22 23.5t22 16.5q11 6 25 7.5t43 2.5l23 43q24 43 53.5 96t70.5 124l28 49l-30 54q12 7 36 16t74 9q40 0 66 -16t43 -49t28.5 -84t23.5 -121q14 -86 47.5 -173.5t80.5 -177.5q-38 -26 -66 -40t-58 -14q-25 0 -42.5 9.5t-31 28.5t-25 47.5t-23.5 65.5zM401 467l-90 -190h133z
M452 772q-19 -9 -45 -19.5t-54 -10.5q-12 0 -23 4t-11 15q0 8 8 15.5t20 14t25 11.5t23 9t27 10t35 11.5t34 9.5t25 4q8 0 13.5 -3.5t22.5 -20.5q27 -26 59 -48q17 -12 21.5 -15.5t4.5 -8.5t-7 -10t-18 -9t-25 -6.5t-28 -2.5q-40 0 -64 16t-43 34z" />
    <glyph glyph-name="Atilde" unicode="&#xc3;" horiz-adv-x="729" 
d="M476 168q-33 -14 -54 -19.5t-49 -4.5l-121 4l-22 -42q-14 -28 -28.5 -48.5t-33.5 -34t-43 -20t-58 -6.5q-23 0 -36.5 4.5t-13.5 18.5q0 6 3.5 14t9 17t11 17.5t10.5 14.5q11 16 18 25.5t12 16t9 12.5t9 14q-6 1 -15 3.5t-17 6.5t-13.5 9.5t-5.5 14.5q0 10 7 22.5t17 25.5
t22 23.5t22 16.5q11 6 25 7.5t43 2.5l23 43q24 43 53.5 96t70.5 124l28 49l-30 54q12 7 36 16t74 9q40 0 66 -16t43 -49t28.5 -84t23.5 -121q14 -86 47.5 -173.5t80.5 -177.5q-38 -26 -66 -40t-58 -14q-25 0 -42.5 9.5t-31 28.5t-25 47.5t-23.5 65.5zM401 467l-90 -190h133z
M666 778q10 -1 12.5 -6.5t2.5 -7.5q0 -10 -17.5 -18t-41.5 -13.5t-48 -8.5t-37 -3q-22 0 -40.5 7t-44.5 19q-20 9 -30.5 11t-17.5 2q-13 0 -26.5 -3t-24.5 -5q-5 -2 -11 -3t-9 -1q-16 0 -16 13q0 5 4 9.5t10 8t11.5 6t8.5 3.5q10 4 26 9.5t33 10.5t33 8.5t26 3.5
q23 0 39 -6.5t48 -24.5q19 -11 32.5 -14t26.5 -3q8 0 22.5 2t28.5 4z" />
    <glyph glyph-name="Adieresis" unicode="&#xc4;" horiz-adv-x="729" 
d="M476 168q-33 -14 -54 -19.5t-49 -4.5l-121 4l-22 -42q-14 -28 -28.5 -48.5t-33.5 -34t-43 -20t-58 -6.5q-23 0 -36.5 4.5t-13.5 18.5q0 6 3.5 14t9 17t11 17.5t10.5 14.5q11 16 18 25.5t12 16t9 12.5t9 14q-6 1 -15 3.5t-17 6.5t-13.5 9.5t-5.5 14.5q0 10 7 22.5t17 25.5
t22 23.5t22 16.5q11 6 25 7.5t43 2.5l23 43q24 43 53.5 96t70.5 124l28 49l-30 54q12 7 36 16t74 9q40 0 66 -16t43 -49t28.5 -84t23.5 -121q14 -86 47.5 -173.5t80.5 -177.5q-38 -26 -66 -40t-58 -14q-25 0 -42.5 9.5t-31 28.5t-25 47.5t-23.5 65.5zM401 467l-90 -190h133z
M357 739q-5 0 -12.5 1t-14 4t-11 8.5t-4.5 14.5q0 10 5 23.5t12.5 27t15 24t13.5 14.5q7 5 20.5 9.5t29.5 8.5t32.5 6t28.5 2q9 0 16 -3t7 -13q0 -9 -5 -26t-13 -34t-19.5 -31.5t-24.5 -20.5q-17 -8 -38.5 -11.5t-37.5 -3.5zM571 721q-8 0 -20.5 1t-24.5 5t-20.5 12t-8.5 22
q0 10 3 21.5t7 21.5t8.5 18t8.5 12q10 9 26 13.5t44 4.5q34 0 48.5 -5.5t14.5 -20.5q0 -9 -4 -22t-10 -26.5t-14 -25t-16 -18.5q-7 -6 -16.5 -9.5t-25.5 -3.5z" />
    <glyph glyph-name="Aring" unicode="&#xc5;" horiz-adv-x="729" 
d="M476 168q-33 -14 -54 -19.5t-49 -4.5l-121 4l-22 -42q-14 -28 -28.5 -48.5t-33.5 -34t-43 -20t-58 -6.5q-23 0 -36.5 4.5t-13.5 18.5q0 6 3.5 14t9 17t11 17.5t10.5 14.5q11 16 18 25.5t12 16t9 12.5t9 14q-6 1 -15 3.5t-17 6.5t-13.5 9.5t-5.5 14.5q0 10 7 22.5t17 25.5
t22 23.5t22 16.5q11 6 25 7.5t43 2.5l23 43q24 43 53.5 96t70.5 124l28 49l-30 54q12 7 36 16t74 9q40 0 66 -16t43 -49t28.5 -84t23.5 -121q14 -86 47.5 -173.5t80.5 -177.5q-38 -26 -66 -40t-58 -14q-25 0 -42.5 9.5t-31 28.5t-25 47.5t-23.5 65.5zM401 467l-90 -190h133z
M473 880q4 10 13 22.5t36 12.5q18 0 33.5 -8t26.5 -21t17.5 -29.5t6.5 -34.5q0 -22 -9 -40.5t-24 -32t-35.5 -21t-43.5 -7.5q-20 0 -39.5 6.5t-34.5 18t-24.5 28t-9.5 37.5q0 25 11 39t25 20.5t28.5 8t22.5 1.5zM468 833q-1 -21 13.5 -41.5t39.5 -20.5q12 0 20.5 7t8.5 18
q0 10 -5 20t-13.5 18.5t-19 14t-22.5 5.5q-9 0 -22 -6v-15z" />
    <glyph glyph-name="AE" unicode="&#xc6;" horiz-adv-x="1010" 
d="M813 442q32 42 48.5 78.5t16.5 57.5q0 5 -2 10t-7 5q-8 0 -26 -7.5t-41.5 -22t-49 -35.5t-47 -48t-36 -60t-16.5 -70q45 -3 81.5 -5t80.5 -2q6 0 19.5 0.5t28.5 1t28 1t18 0.5q3 0 11.5 -0.5t18 -2t16.5 -5.5t7 -11q0 -12 -15 -36t-37 -46q-14 -14 -29 -19t-48 -5l-177 1
q1 -11 4.5 -30t12.5 -38t26.5 -33t46.5 -14q42 0 81 18.5t68 35.5q21 13 34 20.5t20 11t10 4t6 0.5q7 0 12 -5.5t5 -12.5q0 -11 -3.5 -24t-9.5 -25t-12.5 -22.5t-12.5 -15.5q-27 -23 -68 -43t-83 -34t-79 -22t-55 -8q-30 0 -54 9t-42 21.5t-30 26t-19 22.5
q-17 23 -25.5 51.5t-17.5 68.5q-12 -12 -20.5 -18.5t-19 -10.5t-25.5 -4.5t-42 -0.5l-88 1q-8 0 -15 -0.5t-12 -0.5q-23 -39 -36 -61t-20.5 -34t-12.5 -18t-11 -13q-10 -12 -24 -18.5t-27 -9.5t-24 -3.5t-15 -0.5q-29 0 -42 12t-13 26q0 7 4.5 17t11 21t14.5 21.5t14 18.5
l17 22l18 25q-22 10 -30.5 16.5t-8.5 20.5q0 26 19 46t50 28q11 2 23 3t25 2l30 54q30 54 47.5 86.5t30 55t22.5 41.5t25 47l23 43q-5 8 -8.5 13t-6.5 8t-7.5 5.5t-10.5 5.5q-7 2 -7 8q0 5 11 11t27 11t34.5 8.5t32.5 3.5q31 0 55 -13.5t42.5 -36.5t32 -54t24.5 -66
q10 14 18.5 25.5t18.5 22t21.5 21t27.5 22.5q35 26 67 42.5t60 25.5t50 12.5t38 3.5q27 0 49 -8t38 -22.5t25 -34t9 -41.5q0 -38 -16.5 -74.5t-44 -65t-63 -46t-72.5 -17.5q-16 0 -19.5 4.5t-3.5 9.5q0 18 20 44zM406 467l-12 -24q-15 -30 -35.5 -69.5t-40.5 -81.5l-11 -23
h142l-5 24q-2 12 -5.5 29t-8 37.5t-9 42t-9.5 41.5z" />
    <glyph glyph-name="Ccedilla" unicode="&#xc7;" horiz-adv-x="615" 
d="M246 -5q16 -4 25 -12.5t13.5 -17t5 -15l0.5 -6.5q0 -15 -10.5 -30.5t-27 -28t-36.5 -20.5t-38 -8t-28 6t-10 14q0 5 2 6.5t16 5.5q15 4 23 12.5t12.5 17t5.5 16t1 9.5q-13 -4 -24 -4q-8 0 -17.5 4.5t-9.5 17.5q0 8 4.5 13.5t22.5 9.5q16 3 21.5 5t13.5 7q-50 9 -85 31.5
t-57 52t-32 61.5t-10 59q0 36 12.5 85t39.5 101t69.5 104t102.5 94q17 12 41.5 27t53.5 28t60.5 22t62.5 9q64 0 98 -35.5t34 -86.5q0 -42 -12 -82.5t-32 -77t-45.5 -67t-52.5 -52.5t-53 -34.5t-47 -12.5q-22 0 -22 23q0 8 2.5 13.5t15.5 24.5q17 25 31.5 61t25.5 75
t17.5 77t6.5 68q0 5 -1.5 15t-9.5 10q-7 0 -24 -14t-38.5 -39.5t-44.5 -62t-42 -81t-31.5 -96.5t-12.5 -108q0 -46 11.5 -62t36.5 -16q27 0 63 13.5t70 31t59.5 33t31.5 18.5q22 14 35 22t20.5 12.5t11.5 5.5t8 1q6 0 10.5 -4t4.5 -11q0 -2 -3 -17t-12 -37t-25.5 -46
t-44.5 -43q-26 -18 -60.5 -35t-71 -30t-71.5 -21t-60 -9z" />
    <glyph glyph-name="Egrave" unicode="&#xc8;" horiz-adv-x="615" 
d="M253 221q-1 -26 5.5 -46t16.5 -33t22 -19.5t22 -6.5q22 0 55.5 12.5t66 28t57 29t29.5 16.5q20 13 33.5 21t19.5 8q5 0 6.5 -4.5t1.5 -9.5q0 -9 -3 -26.5t-10 -36.5t-18.5 -37.5t-28.5 -29.5q-8 -5 -36.5 -19.5t-66.5 -30.5t-81 -28t-80 -12q-50 0 -92 16.5t-73.5 44.5
t-49 64t-17.5 75q0 53 19 109t51.5 109t75.5 100t91 82t98.5 55.5t98.5 20.5q25 0 49.5 -9t44.5 -24.5t32.5 -37.5t12.5 -47q0 -48 -23.5 -82.5t-56 -56.5t-66 -32t-53.5 -10q-8 0 -18.5 2.5t-10.5 11.5q0 7 5 13t16 17q21 22 34 49.5t20.5 52.5t10.5 43.5t3 22.5
q0 18 -10 18q-6 0 -32 -15t-57 -46t-61 -78.5t-43 -111.5h261q3 0 10 -0.5t14 -2t12.5 -6t5.5 -11.5q0 -8 -12 -26.5t-31 -37.5t-43 -33.5t-49 -14.5h-178zM388 888q4 0 7 -1.5t8 -6t12 -13.5t18 -23q22 -27 41 -40.5t43 -27.5q1 -1 5.5 -4t9.5 -7t8.5 -8.5t3.5 -9.5
q0 -6 -5 -11t-13 -8.5t-17.5 -5.5t-18.5 -2q-26 0 -58.5 8t-61.5 21t-49 29t-20 33q0 10 9.5 23t23.5 25t28.5 20.5t25.5 8.5z" />
    <glyph glyph-name="Eacute" unicode="&#xc9;" horiz-adv-x="615" 
d="M253 221q-1 -26 5.5 -46t16.5 -33t22 -19.5t22 -6.5q22 0 55.5 12.5t66 28t57 29t29.5 16.5q20 13 33.5 21t19.5 8q5 0 6.5 -4.5t1.5 -9.5q0 -9 -3 -26.5t-10 -36.5t-18.5 -37.5t-28.5 -29.5q-8 -5 -36.5 -19.5t-66.5 -30.5t-81 -28t-80 -12q-50 0 -92 16.5t-73.5 44.5
t-49 64t-17.5 75q0 53 19 109t51.5 109t75.5 100t91 82t98.5 55.5t98.5 20.5q25 0 49.5 -9t44.5 -24.5t32.5 -37.5t12.5 -47q0 -48 -23.5 -82.5t-56 -56.5t-66 -32t-53.5 -10q-8 0 -18.5 2.5t-10.5 11.5q0 7 5 13t16 17q21 22 34 49.5t20.5 52.5t10.5 43.5t3 22.5
q0 18 -10 18q-6 0 -32 -15t-57 -46t-61 -78.5t-43 -111.5h261q3 0 10 -0.5t14 -2t12.5 -6t5.5 -11.5q0 -8 -12 -26.5t-31 -37.5t-43 -33.5t-49 -14.5h-178zM340 739q0 7 7.5 12.5t21.5 14.5q10 6 18 12.5t16 15t18 19.5t24 27q7 7 23.5 14t37 12.5t42.5 8.5t40 3
q6 0 12 -1.5t6 -9.5q0 -22 -26 -47.5t-63 -47t-78 -36t-70 -14.5q-5 0 -17 2.5t-12 14.5z" />
    <glyph glyph-name="Ecircumflex" unicode="&#xca;" horiz-adv-x="615" 
d="M253 221q-1 -26 5.5 -46t16.5 -33t22 -19.5t22 -6.5q22 0 55.5 12.5t66 28t57 29t29.5 16.5q20 13 33.5 21t19.5 8q5 0 6.5 -4.5t1.5 -9.5q0 -9 -3 -26.5t-10 -36.5t-18.5 -37.5t-28.5 -29.5q-8 -5 -36.5 -19.5t-66.5 -30.5t-81 -28t-80 -12q-50 0 -92 16.5t-73.5 44.5
t-49 64t-17.5 75q0 53 19 109t51.5 109t75.5 100t91 82t98.5 55.5t98.5 20.5q25 0 49.5 -9t44.5 -24.5t32.5 -37.5t12.5 -47q0 -48 -23.5 -82.5t-56 -56.5t-66 -32t-53.5 -10q-8 0 -18.5 2.5t-10.5 11.5q0 7 5 13t16 17q21 22 34 49.5t20.5 52.5t10.5 43.5t3 22.5
q0 18 -10 18q-6 0 -32 -15t-57 -46t-61 -78.5t-43 -111.5h261q3 0 10 -0.5t14 -2t12.5 -6t5.5 -11.5q0 -8 -12 -26.5t-31 -37.5t-43 -33.5t-49 -14.5h-178zM415 772q-19 -9 -45 -19.5t-54 -10.5q-12 0 -23 4t-11 15q0 8 8 15.5t20 14t25 11.5t23 9t27 10t35 11.5t34 9.5
t25 4q8 0 13.5 -3.5t22.5 -20.5q27 -26 59 -48q17 -12 21.5 -15.5t4.5 -8.5t-7 -10t-18 -9t-25 -6.5t-28 -2.5q-40 0 -64 16t-43 34z" />
    <glyph glyph-name="Edieresis" unicode="&#xcb;" horiz-adv-x="615" 
d="M253 221q-1 -26 5.5 -46t16.5 -33t22 -19.5t22 -6.5q22 0 55.5 12.5t66 28t57 29t29.5 16.5q20 13 33.5 21t19.5 8q5 0 6.5 -4.5t1.5 -9.5q0 -9 -3 -26.5t-10 -36.5t-18.5 -37.5t-28.5 -29.5q-8 -5 -36.5 -19.5t-66.5 -30.5t-81 -28t-80 -12q-50 0 -92 16.5t-73.5 44.5
t-49 64t-17.5 75q0 53 19 109t51.5 109t75.5 100t91 82t98.5 55.5t98.5 20.5q25 0 49.5 -9t44.5 -24.5t32.5 -37.5t12.5 -47q0 -48 -23.5 -82.5t-56 -56.5t-66 -32t-53.5 -10q-8 0 -18.5 2.5t-10.5 11.5q0 7 5 13t16 17q21 22 34 49.5t20.5 52.5t10.5 43.5t3 22.5
q0 18 -10 18q-6 0 -32 -15t-57 -46t-61 -78.5t-43 -111.5h261q3 0 10 -0.5t14 -2t12.5 -6t5.5 -11.5q0 -8 -12 -26.5t-31 -37.5t-43 -33.5t-49 -14.5h-178zM320 739q-5 0 -12.5 1t-14 4t-11 8.5t-4.5 14.5q0 10 5 23.5t12.5 27t15 24t13.5 14.5q7 5 20.5 9.5t29.5 8.5
t32.5 6t28.5 2q9 0 16 -3t7 -13q0 -9 -5 -26t-13 -34t-19.5 -31.5t-24.5 -20.5q-17 -8 -38.5 -11.5t-37.5 -3.5zM534 721q-8 0 -20.5 1t-24.5 5t-20.5 12t-8.5 22q0 10 3 21.5t7 21.5t8.5 18t8.5 12q10 9 26 13.5t44 4.5q34 0 48.5 -5.5t14.5 -20.5q0 -9 -4 -22t-10 -26.5
t-14 -25t-16 -18.5q-7 -6 -16.5 -9.5t-25.5 -3.5z" />
    <glyph glyph-name="Igrave" unicode="&#xcc;" horiz-adv-x="563" 
d="M233 543q-5 -2 -14.5 -5t-21 -6t-23 -5t-19.5 -2q-15 0 -25.5 10t-10.5 22t6 26t15.5 27.5t20.5 24.5t21 18q13 9 32 14t39.5 7.5t41.5 3t39 0.5q3 0 31.5 -0.5t66.5 -2.5t78 -7.5t67 -14.5q15 -6 19.5 -12t4.5 -17q0 -18 -8 -56.5t-25 -92.5t-43.5 -122t-62.5 -144
q-30 -64 -53 -105t-45.5 -65t-47.5 -33t-59 -9q-39 0 -74 11t-61.5 30.5t-42.5 47t-16 60.5q0 19 5.5 40t13.5 38.5t18.5 29t20.5 11.5q9 0 17 -5.5t14.5 -13t11.5 -16.5t8 -16l14 -29q17 -35 32 -55.5t32 -40.5q12 26 21.5 49t19.5 50t21 62.5t25 88.5q18 67 30 122.5
t22 117.5q-29 0 -60 -7.5t-57 -16.5zM362 888q4 0 7 -1.5t8 -6t12 -13.5t18 -23q22 -27 41 -40.5t43 -27.5q1 -1 5.5 -4t9.5 -7t8.5 -8.5t3.5 -9.5q0 -6 -5 -11t-13 -8.5t-17.5 -5.5t-18.5 -2q-26 0 -58.5 8t-61.5 21t-49 29t-20 33q0 10 9.5 23t23.5 25t28.5 20.5t25.5 8.5
z" />
    <glyph glyph-name="Iacute" unicode="&#xcd;" horiz-adv-x="563" 
d="M233 543q-5 -2 -14.5 -5t-21 -6t-23 -5t-19.5 -2q-15 0 -25.5 10t-10.5 22t6 26t15.5 27.5t20.5 24.5t21 18q13 9 32 14t39.5 7.5t41.5 3t39 0.5q3 0 31.5 -0.5t66.5 -2.5t78 -7.5t67 -14.5q15 -6 19.5 -12t4.5 -17q0 -18 -8 -56.5t-25 -92.5t-43.5 -122t-62.5 -144
q-30 -64 -53 -105t-45.5 -65t-47.5 -33t-59 -9q-39 0 -74 11t-61.5 30.5t-42.5 47t-16 60.5q0 19 5.5 40t13.5 38.5t18.5 29t20.5 11.5q9 0 17 -5.5t14.5 -13t11.5 -16.5t8 -16l14 -29q17 -35 32 -55.5t32 -40.5q12 26 21.5 49t19.5 50t21 62.5t25 88.5q18 67 30 122.5
t22 117.5q-29 0 -60 -7.5t-57 -16.5zM314 739q0 7 7.5 12.5t21.5 14.5q10 6 18 12.5t16 15t18 19.5t24 27q7 7 23.5 14t37 12.5t42.5 8.5t40 3q6 0 12 -1.5t6 -9.5q0 -22 -26 -47.5t-63 -47t-78 -36t-70 -14.5q-5 0 -17 2.5t-12 14.5z" />
    <glyph glyph-name="Icircumflex" unicode="&#xce;" horiz-adv-x="563" 
d="M233 543q-5 -2 -14.5 -5t-21 -6t-23 -5t-19.5 -2q-15 0 -25.5 10t-10.5 22t6 26t15.5 27.5t20.5 24.5t21 18q13 9 32 14t39.5 7.5t41.5 3t39 0.5q3 0 31.5 -0.5t66.5 -2.5t78 -7.5t67 -14.5q15 -6 19.5 -12t4.5 -17q0 -18 -8 -56.5t-25 -92.5t-43.5 -122t-62.5 -144
q-30 -64 -53 -105t-45.5 -65t-47.5 -33t-59 -9q-39 0 -74 11t-61.5 30.5t-42.5 47t-16 60.5q0 19 5.5 40t13.5 38.5t18.5 29t20.5 11.5q9 0 17 -5.5t14.5 -13t11.5 -16.5t8 -16l14 -29q17 -35 32 -55.5t32 -40.5q12 26 21.5 49t19.5 50t21 62.5t25 88.5q18 67 30 122.5
t22 117.5q-29 0 -60 -7.5t-57 -16.5zM389 772q-19 -9 -45 -19.5t-54 -10.5q-12 0 -23 4t-11 15q0 8 8 15.5t20 14t25 11.5t23 9t27 10t35 11.5t34 9.5t25 4q8 0 13.5 -3.5t22.5 -20.5q27 -26 59 -48q17 -12 21.5 -15.5t4.5 -8.5t-7 -10t-18 -9t-25 -6.5t-28 -2.5
q-40 0 -64 16t-43 34z" />
    <glyph glyph-name="Idieresis" unicode="&#xcf;" horiz-adv-x="563" 
d="M233 543q-5 -2 -14.5 -5t-21 -6t-23 -5t-19.5 -2q-15 0 -25.5 10t-10.5 22t6 26t15.5 27.5t20.5 24.5t21 18q13 9 32 14t39.5 7.5t41.5 3t39 0.5q3 0 31.5 -0.5t66.5 -2.5t78 -7.5t67 -14.5q15 -6 19.5 -12t4.5 -17q0 -18 -8 -56.5t-25 -92.5t-43.5 -122t-62.5 -144
q-30 -64 -53 -105t-45.5 -65t-47.5 -33t-59 -9q-39 0 -74 11t-61.5 30.5t-42.5 47t-16 60.5q0 19 5.5 40t13.5 38.5t18.5 29t20.5 11.5q9 0 17 -5.5t14.5 -13t11.5 -16.5t8 -16l14 -29q17 -35 32 -55.5t32 -40.5q12 26 21.5 49t19.5 50t21 62.5t25 88.5q18 67 30 122.5
t22 117.5q-29 0 -60 -7.5t-57 -16.5zM274 739q-5 0 -12.5 1t-14 4t-11 8.5t-4.5 14.5q0 10 5 23.5t12.5 27t15 24t13.5 14.5q7 5 20.5 9.5t29.5 8.5t32.5 6t28.5 2q9 0 16 -3t7 -13q0 -9 -5 -26t-13 -34t-19.5 -31.5t-24.5 -20.5q-17 -8 -38.5 -11.5t-37.5 -3.5zM488 721
q-8 0 -20.5 1t-24.5 5t-20.5 12t-8.5 22q0 10 3 21.5t7 21.5t8.5 18t8.5 12q10 9 26 13.5t44 4.5q34 0 48.5 -5.5t14.5 -20.5q0 -9 -4 -22t-10 -26.5t-14 -25t-16 -18.5q-7 -6 -16.5 -9.5t-25.5 -3.5z" />
    <glyph glyph-name="Eth" unicode="&#xd0;" horiz-adv-x="677" 
d="M49 281q-6 0 -19 0.5t-26 2t-23 5t-10 9.5q0 11 11.5 17t26 8.5t29 3t20.5 0.5h37l43 145q7 23 12.5 37t11 23t11.5 14t13 10q-9 0 -19 -1.5t-36 -10.5l-23 -8q-14 -5 -29.5 -9t-27.5 -4q-16 0 -16 14q0 13 5.5 29.5t16 33t26.5 30.5t36 22q16 6 44.5 11.5t62.5 10
t70 7.5t68 3q22 0 53.5 -1.5t66 -9.5t68 -23.5t60.5 -43.5t44 -71t17 -104q0 -35 -8.5 -80.5t-28.5 -93t-53.5 -93t-84 -81.5t-119.5 -58t-160 -22q-36 0 -68.5 3.5t-58 9.5t-42.5 13t-22 15q-7 9 -7 23q0 8 2 13l59 201h-33zM277 280l-27 -103q-7 -26 -17.5 -51t-27.5 -46
h40.5t43.5 2.5t43.5 9.5t41.5 20q12 8 32 27t38.5 49t32.5 72t14 96q0 17 -3 41t-10.5 50t-22 50.5t-36.5 42.5q-20 15 -35.5 19t-31.5 6l-62 -238h45q23 0 31.5 -4.5t8.5 -14.5q0 -15 -17.5 -21.5t-40.5 -6.5h-40z" />
    <glyph glyph-name="Ntilde" unicode="&#xd1;" horiz-adv-x="782" 
d="M227 201q-11 -34 -19.5 -56t-15 -35.5t-10.5 -20t-7 -10.5q-26 -38 -64.5 -55t-70.5 -17q-6 0 -16 3t-10 16q0 15 17 44l11 20q7 13 16 30.5t17 35t14.5 32t9.5 21.5l89 233q8 22 19 49t20 44l7 14q2 4 6.5 14.5t4.5 17.5q0 9 -7.5 16.5t-18.5 15.5q-2 2 -7 6.5t-5 9.5
q0 7 17 15.5t40 15.5t48 12t41 5q19 0 35 -6.5t24 -15.5q9 -10 17 -27t15 -36t12 -36t8 -26l15 -53q14 -48 31 -94.5t42 -85.5q7 23 12 39t9.5 32.5t10 38.5t14.5 57q6 22 13 48t16 50t21 44.5t27 33.5q19 17 41 24.5t42 7.5q13 0 19 -6.5t6 -26.5q0 -8 -1.5 -20.5
t-9.5 -41.5q-8 -33 -23 -77.5t-30.5 -87t-28 -75.5t-16.5 -42l-87 -215q-3 -9 -8.5 -21t-13 -23t-17.5 -19t-23 -8q-19 0 -37.5 17.5t-43.5 62.5q-51 91 -84 179.5t-55 168.5zM693 778q10 -1 12.5 -6.5t2.5 -7.5q0 -10 -17.5 -18t-41.5 -13.5t-48 -8.5t-37 -3q-22 0 -40.5 7
t-44.5 19q-20 9 -30.5 11t-17.5 2q-13 0 -26.5 -3t-24.5 -5q-5 -2 -11 -3t-9 -1q-16 0 -16 13q0 5 4 9.5t10 8t11.5 6t8.5 3.5q10 4 26 9.5t33 10.5t33 8.5t26 3.5q23 0 39 -6.5t48 -24.5q19 -11 32.5 -14t26.5 -3q8 0 22.5 2t28.5 4z" />
    <glyph glyph-name="Ograve" unicode="&#xd2;" horiz-adv-x="635" 
d="M430 453q-8 14 -10.5 21t-2.5 14q0 14 15 31t36 32t43 25.5t36 10.5q9 0 21.5 -5t19.5 -13q17 -19 26 -61t9 -91q0 -88 -27.5 -165t-75 -134.5t-111 -90.5t-136.5 -33q-40 0 -84 12t-81 38t-61 66.5t-24 97.5q0 56 20 115.5t54.5 114.5t82 102t101.5 77q46 26 98 40
t96 14q3 0 11 -0.5t17 -2t16 -5t7 -9.5q0 -10 -16.5 -27t-68.5 -35q-20 -7 -36 -12.5t-31 -13.5t-32 -21t-39 -36q-28 -29 -45.5 -61t-27 -63.5t-12.5 -60.5t-3 -53q0 -38 6 -72t18.5 -59.5t32 -40.5t46.5 -15q29 0 58 19.5t52 51t37 71.5t14 81q0 36 -12 70t-23 52z
M398 888q4 0 7 -1.5t8 -6t12 -13.5t18 -23q22 -27 41 -40.5t43 -27.5q1 -1 5.5 -4t9.5 -7t8.5 -8.5t3.5 -9.5q0 -6 -5 -11t-13 -8.5t-17.5 -5.5t-18.5 -2q-26 0 -58.5 8t-61.5 21t-49 29t-20 33q0 10 9.5 23t23.5 25t28.5 20.5t25.5 8.5z" />
    <glyph glyph-name="Oacute" unicode="&#xd3;" horiz-adv-x="635" 
d="M430 453q-8 14 -10.5 21t-2.5 14q0 14 15 31t36 32t43 25.5t36 10.5q9 0 21.5 -5t19.5 -13q17 -19 26 -61t9 -91q0 -88 -27.5 -165t-75 -134.5t-111 -90.5t-136.5 -33q-40 0 -84 12t-81 38t-61 66.5t-24 97.5q0 56 20 115.5t54.5 114.5t82 102t101.5 77q46 26 98 40
t96 14q3 0 11 -0.5t17 -2t16 -5t7 -9.5q0 -10 -16.5 -27t-68.5 -35q-20 -7 -36 -12.5t-31 -13.5t-32 -21t-39 -36q-28 -29 -45.5 -61t-27 -63.5t-12.5 -60.5t-3 -53q0 -38 6 -72t18.5 -59.5t32 -40.5t46.5 -15q29 0 58 19.5t52 51t37 71.5t14 81q0 36 -12 70t-23 52z
M350 739q0 7 7.5 12.5t21.5 14.5q10 6 18 12.5t16 15t18 19.5t24 27q7 7 23.5 14t37 12.5t42.5 8.5t40 3q6 0 12 -1.5t6 -9.5q0 -22 -26 -47.5t-63 -47t-78 -36t-70 -14.5q-5 0 -17 2.5t-12 14.5z" />
    <glyph glyph-name="Ocircumflex" unicode="&#xd4;" horiz-adv-x="635" 
d="M430 453q-8 14 -10.5 21t-2.5 14q0 14 15 31t36 32t43 25.5t36 10.5q9 0 21.5 -5t19.5 -13q17 -19 26 -61t9 -91q0 -88 -27.5 -165t-75 -134.5t-111 -90.5t-136.5 -33q-40 0 -84 12t-81 38t-61 66.5t-24 97.5q0 56 20 115.5t54.5 114.5t82 102t101.5 77q46 26 98 40
t96 14q3 0 11 -0.5t17 -2t16 -5t7 -9.5q0 -10 -16.5 -27t-68.5 -35q-20 -7 -36 -12.5t-31 -13.5t-32 -21t-39 -36q-28 -29 -45.5 -61t-27 -63.5t-12.5 -60.5t-3 -53q0 -38 6 -72t18.5 -59.5t32 -40.5t46.5 -15q29 0 58 19.5t52 51t37 71.5t14 81q0 36 -12 70t-23 52z
M425 772q-19 -9 -45 -19.5t-54 -10.5q-12 0 -23 4t-11 15q0 8 8 15.5t20 14t25 11.5t23 9t27 10t35 11.5t34 9.5t25 4q8 0 13.5 -3.5t22.5 -20.5q27 -26 59 -48q17 -12 21.5 -15.5t4.5 -8.5t-7 -10t-18 -9t-25 -6.5t-28 -2.5q-40 0 -64 16t-43 34z" />
    <glyph glyph-name="Otilde" unicode="&#xd5;" horiz-adv-x="635" 
d="M430 453q-8 14 -10.5 21t-2.5 14q0 14 15 31t36 32t43 25.5t36 10.5q9 0 21.5 -5t19.5 -13q17 -19 26 -61t9 -91q0 -88 -27.5 -165t-75 -134.5t-111 -90.5t-136.5 -33q-40 0 -84 12t-81 38t-61 66.5t-24 97.5q0 56 20 115.5t54.5 114.5t82 102t101.5 77q46 26 98 40
t96 14q3 0 11 -0.5t17 -2t16 -5t7 -9.5q0 -10 -16.5 -27t-68.5 -35q-20 -7 -36 -12.5t-31 -13.5t-32 -21t-39 -36q-28 -29 -45.5 -61t-27 -63.5t-12.5 -60.5t-3 -53q0 -38 6 -72t18.5 -59.5t32 -40.5t46.5 -15q29 0 58 19.5t52 51t37 71.5t14 81q0 36 -12 70t-23 52z
M619 778q10 -1 12.5 -6.5t2.5 -7.5q0 -10 -17.5 -18t-41.5 -13.5t-48 -8.5t-37 -3q-22 0 -40.5 7t-44.5 19q-20 9 -30.5 11t-17.5 2q-13 0 -26.5 -3t-24.5 -5q-5 -2 -11 -3t-9 -1q-16 0 -16 13q0 5 4 9.5t10 8t11.5 6t8.5 3.5q10 4 26 9.5t33 10.5t33 8.5t26 3.5
q23 0 39 -6.5t48 -24.5q19 -11 32.5 -14t26.5 -3q8 0 22.5 2t28.5 4z" />
    <glyph glyph-name="Odieresis" unicode="&#xd6;" horiz-adv-x="635" 
d="M430 453q-8 14 -10.5 21t-2.5 14q0 14 15 31t36 32t43 25.5t36 10.5q9 0 21.5 -5t19.5 -13q17 -19 26 -61t9 -91q0 -88 -27.5 -165t-75 -134.5t-111 -90.5t-136.5 -33q-40 0 -84 12t-81 38t-61 66.5t-24 97.5q0 56 20 115.5t54.5 114.5t82 102t101.5 77q46 26 98 40
t96 14q3 0 11 -0.5t17 -2t16 -5t7 -9.5q0 -10 -16.5 -27t-68.5 -35q-20 -7 -36 -12.5t-31 -13.5t-32 -21t-39 -36q-28 -29 -45.5 -61t-27 -63.5t-12.5 -60.5t-3 -53q0 -38 6 -72t18.5 -59.5t32 -40.5t46.5 -15q29 0 58 19.5t52 51t37 71.5t14 81q0 36 -12 70t-23 52z
M310 739q-5 0 -12.5 1t-14 4t-11 8.5t-4.5 14.5q0 10 5 23.5t12.5 27t15 24t13.5 14.5q7 5 20.5 9.5t29.5 8.5t32.5 6t28.5 2q9 0 16 -3t7 -13q0 -9 -5 -26t-13 -34t-19.5 -31.5t-24.5 -20.5q-17 -8 -38.5 -11.5t-37.5 -3.5zM524 721q-8 0 -20.5 1t-24.5 5t-20.5 12t-8.5 22
q0 10 3 21.5t7 21.5t8.5 18t8.5 12q10 9 26 13.5t44 4.5q34 0 48.5 -5.5t14.5 -20.5q0 -9 -4 -22t-10 -26.5t-14 -25t-16 -18.5q-7 -6 -16.5 -9.5t-25.5 -3.5z" />
    <glyph glyph-name="multiply" unicode="&#xd7;" horiz-adv-x="667" 
d="M151 586l183 -183l182 183l74 -74l-182 -183l181 -181l-74 -74l-181 181l-182 -181l-74 74l182 181l-183 183z" />
    <glyph glyph-name="Oslash" unicode="&#xd8;" horiz-adv-x="635" 
d="M447 423l-3 6l-14 24q-9 16 -11 23t-2 12q0 14 15 31t36 32t43 25.5t36 10.5q1 0 6 -0.5t12.5 -3t15.5 -8.5t15 -17q5 5 12.5 10t14.5 5t8.5 -7t1.5 -12q0 -9 -0.5 -15t-3 -10.5t-6 -9t-9.5 -11.5q2 -8 5.5 -32.5t3.5 -59.5q0 -86 -27 -163t-74.5 -134.5t-111.5 -91
t-137 -33.5q-51 0 -98.5 17t-82.5 46q-16 -12 -24 -17t-16 -5q-4 0 -7.5 2t-3.5 7q0 8 10 19.5t17 17.5q-23 28 -34 62.5t-11 64.5q0 57 20 116.5t54.5 114.5t82 101.5t101.5 76.5q46 26 98 40t96 14q3 0 11 -0.5t17 -2t16 -5t7 -9.5q0 -3 -3.5 -9.5t-12.5 -15.5
t-25.5 -18.5t-42.5 -18.5l-30 -10t-32 -13.5t-36 -22.5t-41 -37q-29 -29 -46 -61t-26.5 -63.5t-12.5 -60.5t-3 -53q0 -20 1 -33t2 -21zM471 365q-32 -29 -65 -57.5t-64.5 -55t-60.5 -49.5t-51 -41q4 -14 11.5 -28t18 -25t25 -18t33.5 -7q30 0 59 20t51.5 52t36.5 71t14 77
q0 32 -8 61z" />
    <glyph glyph-name="Ugrave" unicode="&#xd9;" horiz-adv-x="625" 
d="M312 546q-23 -54 -41 -111t-30 -106t-18.5 -83.5t-6.5 -42.5q0 -6 2 -11t7 -5q9 0 33.5 28t57 74.5t70 106.5t72.5 124q6 11 13.5 22.5t18.5 21t26 15.5t38 6q13 0 28.5 -7.5t15.5 -33.5q0 -3 -0.5 -10t-2.5 -24l-3 -25q-5 -40 -7.5 -86t-2.5 -91q0 -23 2.5 -69.5
t15.5 -105.5l8 -36q2 -14 4.5 -26.5t2.5 -20.5q0 -7 -3 -14t-12 -12q-10 -6 -22.5 -10.5t-24.5 -8t-22.5 -5t-15.5 -1.5q-27 0 -56.5 22t-48.5 79q-11 32 -14.5 65t-5.5 65q-23 -38 -48.5 -79t-56 -75.5t-66 -56.5t-76.5 -22q-28 0 -50 10t-37.5 28t-23.5 42t-8 52
q0 35 7 80t18.5 93.5t26 97.5t29.5 92.5t29 78t24 54.5q4 8 10.5 17t20 17t36 13t60.5 5q31 0 42 -12t11 -34q0 -11 -3 -25t-13 -37zM393 888q4 0 7 -1.5t8 -6t12 -13.5t18 -23q22 -27 41 -40.5t43 -27.5q1 -1 5.5 -4t9.5 -7t8.5 -8.5t3.5 -9.5q0 -6 -5 -11t-13 -8.5
t-17.5 -5.5t-18.5 -2q-26 0 -58.5 8t-61.5 21t-49 29t-20 33q0 10 9.5 23t23.5 25t28.5 20.5t25.5 8.5z" />
    <glyph glyph-name="Uacute" unicode="&#xda;" horiz-adv-x="625" 
d="M312 546q-23 -54 -41 -111t-30 -106t-18.5 -83.5t-6.5 -42.5q0 -6 2 -11t7 -5q9 0 33.5 28t57 74.5t70 106.5t72.5 124q6 11 13.5 22.5t18.5 21t26 15.5t38 6q13 0 28.5 -7.5t15.5 -33.5q0 -3 -0.5 -10t-2.5 -24l-3 -25q-5 -40 -7.5 -86t-2.5 -91q0 -23 2.5 -69.5
t15.5 -105.5l8 -36q2 -14 4.5 -26.5t2.5 -20.5q0 -7 -3 -14t-12 -12q-10 -6 -22.5 -10.5t-24.5 -8t-22.5 -5t-15.5 -1.5q-27 0 -56.5 22t-48.5 79q-11 32 -14.5 65t-5.5 65q-23 -38 -48.5 -79t-56 -75.5t-66 -56.5t-76.5 -22q-28 0 -50 10t-37.5 28t-23.5 42t-8 52
q0 35 7 80t18.5 93.5t26 97.5t29.5 92.5t29 78t24 54.5q4 8 10.5 17t20 17t36 13t60.5 5q31 0 42 -12t11 -34q0 -11 -3 -25t-13 -37zM345 739q0 7 7.5 12.5t21.5 14.5q10 6 18 12.5t16 15t18 19.5t24 27q7 7 23.5 14t37 12.5t42.5 8.5t40 3q6 0 12 -1.5t6 -9.5
q0 -22 -26 -47.5t-63 -47t-78 -36t-70 -14.5q-5 0 -17 2.5t-12 14.5z" />
    <glyph glyph-name="Ucircumflex" unicode="&#xdb;" horiz-adv-x="625" 
d="M312 546q-23 -54 -41 -111t-30 -106t-18.5 -83.5t-6.5 -42.5q0 -6 2 -11t7 -5q9 0 33.5 28t57 74.5t70 106.5t72.5 124q6 11 13.5 22.5t18.5 21t26 15.5t38 6q13 0 28.5 -7.5t15.5 -33.5q0 -3 -0.5 -10t-2.5 -24l-3 -25q-5 -40 -7.5 -86t-2.5 -91q0 -23 2.5 -69.5
t15.5 -105.5l8 -36q2 -14 4.5 -26.5t2.5 -20.5q0 -7 -3 -14t-12 -12q-10 -6 -22.5 -10.5t-24.5 -8t-22.5 -5t-15.5 -1.5q-27 0 -56.5 22t-48.5 79q-11 32 -14.5 65t-5.5 65q-23 -38 -48.5 -79t-56 -75.5t-66 -56.5t-76.5 -22q-28 0 -50 10t-37.5 28t-23.5 42t-8 52
q0 35 7 80t18.5 93.5t26 97.5t29.5 92.5t29 78t24 54.5q4 8 10.5 17t20 17t36 13t60.5 5q31 0 42 -12t11 -34q0 -11 -3 -25t-13 -37zM420 772q-19 -9 -45 -19.5t-54 -10.5q-12 0 -23 4t-11 15q0 8 8 15.5t20 14t25 11.5t23 9t27 10t35 11.5t34 9.5t25 4q8 0 13.5 -3.5
t22.5 -20.5q27 -26 59 -48q17 -12 21.5 -15.5t4.5 -8.5t-7 -10t-18 -9t-25 -6.5t-28 -2.5q-40 0 -64 16t-43 34z" />
    <glyph glyph-name="Udieresis" unicode="&#xdc;" horiz-adv-x="625" 
d="M312 546q-23 -54 -41 -111t-30 -106t-18.5 -83.5t-6.5 -42.5q0 -6 2 -11t7 -5q9 0 33.5 28t57 74.5t70 106.5t72.5 124q6 11 13.5 22.5t18.5 21t26 15.5t38 6q13 0 28.5 -7.5t15.5 -33.5q0 -3 -0.5 -10t-2.5 -24l-3 -25q-5 -40 -7.5 -86t-2.5 -91q0 -23 2.5 -69.5
t15.5 -105.5l8 -36q2 -14 4.5 -26.5t2.5 -20.5q0 -7 -3 -14t-12 -12q-10 -6 -22.5 -10.5t-24.5 -8t-22.5 -5t-15.5 -1.5q-27 0 -56.5 22t-48.5 79q-11 32 -14.5 65t-5.5 65q-23 -38 -48.5 -79t-56 -75.5t-66 -56.5t-76.5 -22q-28 0 -50 10t-37.5 28t-23.5 42t-8 52
q0 35 7 80t18.5 93.5t26 97.5t29.5 92.5t29 78t24 54.5q4 8 10.5 17t20 17t36 13t60.5 5q31 0 42 -12t11 -34q0 -11 -3 -25t-13 -37zM305 739q-5 0 -12.5 1t-14 4t-11 8.5t-4.5 14.5q0 10 5 23.5t12.5 27t15 24t13.5 14.5q7 5 20.5 9.5t29.5 8.5t32.5 6t28.5 2q9 0 16 -3
t7 -13q0 -9 -5 -26t-13 -34t-19.5 -31.5t-24.5 -20.5q-17 -8 -38.5 -11.5t-37.5 -3.5zM519 721q-8 0 -20.5 1t-24.5 5t-20.5 12t-8.5 22q0 10 3 21.5t7 21.5t8.5 18t8.5 12q10 9 26 13.5t44 4.5q34 0 48.5 -5.5t14.5 -20.5q0 -9 -4 -22t-10 -26.5t-14 -25t-16 -18.5
q-7 -6 -16.5 -9.5t-25.5 -3.5z" />
    <glyph glyph-name="Yacute" unicode="&#xdd;" horiz-adv-x="668" 
d="M319 600l2 -24t3 -25l5 -37q1 -8 2.5 -27t4 -40t4.5 -40t3 -26q5 -45 11.5 -80t13.5 -61.5t13 -46t11 -33.5q10 20 24.5 50.5t29 63.5t28 65.5t22.5 57.5l11 32q19 53 35.5 85.5t39.5 58.5q13 14 29.5 28t33 25t33 17.5t29.5 6.5q5 0 10.5 -3t5.5 -11q0 -9 -7.5 -29.5
t-17.5 -44t-20 -45.5t-15 -34q-35 -75 -73.5 -152t-79.5 -149t-82.5 -134.5t-82.5 -106.5q-45 -49 -102 -82t-123 -33q-23 0 -38 9t-15 23q0 11 5.5 27t14 32.5t17.5 30.5t17 22q5 5 12 8t23 4h18q37 0 65 12.5t58 31.5q-12 21 -28 50t-33 63t-33.5 72.5t-29.5 79.5
q-9 28 -17 60.5t-14 66t-9.5 67t-3.5 62.5q0 26 6 44.5t21 29.5q16 12 35.5 21.5t38 16t34 9.5t23.5 3q14 0 21.5 -10.5t9.5 -42.5zM347 739q0 7 7.5 12.5t21.5 14.5q10 6 18 12.5t16 15t18 19.5t24 27q7 7 23.5 14t37 12.5t42.5 8.5t40 3q6 0 12 -1.5t6 -9.5
q0 -22 -26 -47.5t-63 -47t-78 -36t-70 -14.5q-5 0 -17 2.5t-12 14.5z" />
    <glyph glyph-name="Thorn" unicode="&#xde;" horiz-adv-x="594" 
d="M237 151q-12 -42 -26 -68.5t-40 -42.5q-6 -4 -19 -10.5t-28.5 -13t-31 -11.5t-27.5 -5q-14 0 -26 9t-12 30q0 7 2 18t5 24t6.5 26t6.5 24q17 63 29.5 108t23.5 79.5t20.5 62.5t20.5 57t23.5 62.5t29.5 80.5q7 20 15 39t20.5 34t31 24t46.5 9q10 0 23.5 -2t24.5 -8
t19 -17.5t8 -29.5q0 -8 -3 -18q37 -6 65 -15t54 -31q21 -18 34.5 -37t20.5 -38t9.5 -37t2.5 -33q0 -51 -21.5 -98.5t-57.5 -84t-84 -58t-100 -21.5q-16 0 -32 2t-29 4zM253 211q14 2 25.5 4.5t27.5 11.5q40 23 65 62.5t25 85.5q0 24 -6.5 42t-15.5 31.5t-19 23.5t-18 17z
" />
    <glyph glyph-name="germandbls" unicode="&#xdf;" horiz-adv-x="583" 
d="M212 455q-5 14 -7 22.5t-2 21.5q0 39 14.5 71.5t39.5 56t57 37t68 13.5q33 0 61 -11.5t48.5 -31t32 -45.5t11.5 -55q0 -19 -5 -35.5t-15.5 -33t-26.5 -34t-38 -38.5q18 -3 38.5 -7t38.5 -15t30 -31t12 -54q0 -52 -23 -103.5t-60 -92.5t-83 -66.5t-91 -25.5q-28 0 -47.5 7
t-33 18t-23 24.5t-16.5 26.5q-6 -13 -14.5 -27t-21 -26t-30 -20t-41.5 -8q-22 0 -34 6t-17.5 14.5t-6.5 17.5t-1 14q0 21 8.5 61.5t20.5 86.5t24.5 88.5t20.5 66.5q4 14 10.5 29.5t18.5 30t32 27t51 20.5zM305 560q2 -25 4.5 -38.5t2.5 -27.5q0 -20 -8.5 -30.5t-33.5 -23.5
q0 -18 -4.5 -50t-11 -68.5t-14 -72t-12.5 -59.5q32 37 51 46t26 9q5 0 5 -10q0 -2 -0.5 -7.5t-0.5 -12t-0.5 -12t-0.5 -8.5q0 -31 6 -51.5t14.5 -34t18 -21t15.5 -11.5q16 28 28 59.5t12 77.5q0 9 -1 24t-6.5 30.5t-17 29t-32.5 19.5q-9 3 -14.5 4.5t-9 3.5t-6 6t-5.5 10
q12 11 26.5 24.5t27 31t21 38t8.5 46.5q0 18 -6 35.5t-16 32t-23.5 23t-28.5 8.5t-15 -10z" />
    <glyph glyph-name="agrave" unicode="&#xe0;" horiz-adv-x="552" 
d="M360 142q-63 -69 -115 -112t-104 -43q-26 0 -48 10t-38 27.5t-25.5 39.5t-9.5 46q0 37 14 78.5t39 81.5t58.5 76t72.5 63.5t82 44t87 16.5q27 0 52 -6t44.5 -17.5t31 -29t11.5 -40.5q0 -19 -7 -33.5t-13 -24.5q22 -1 31 -4.5t9 -22.5q0 -2 -0.5 -8t-1 -13.5t-1 -14.5
t-0.5 -9q-2 -19 -2 -37v-37q0 -25 1 -43t3.5 -32t5.5 -25.5t8 -23.5q-24 -23 -49.5 -39.5t-59.5 -16.5q-27 0 -42.5 13.5t-23 35t-9.5 48t-1 52.5zM391 254q-13 -4 -31.5 -8.5t-32.5 -4.5q-7 0 -12 2.5t-5 7.5q0 3 1.5 6.5t8.5 15.5q16 26 20.5 43t4.5 31q0 21 -7.5 38.5
t-15.5 17.5q-5 0 -10 -3.5t-14 -13.5q-19 -20 -37 -44t-31.5 -50t-22 -52t-8.5 -51q0 -20 10 -39t27 -19q5 0 10 1.5t7 3.5q9 4 24 15t32 26t35 31.5t34 32.5zM357 712q4 0 7 -1.5t8 -6t12 -13.5t18 -23q22 -27 41 -40.5t43 -27.5q1 -1 5.5 -4t9.5 -7t8.5 -8.5t3.5 -9.5
q0 -6 -5 -11t-13 -8.5t-17.5 -5.5t-18.5 -2q-26 0 -58.5 8t-61.5 21t-49 29t-20 33q0 10 9.5 23t23.5 25t28.5 20.5t25.5 8.5z" />
    <glyph glyph-name="aacute" unicode="&#xe1;" horiz-adv-x="552" 
d="M360 142q-63 -69 -115 -112t-104 -43q-26 0 -48 10t-38 27.5t-25.5 39.5t-9.5 46q0 37 14 78.5t39 81.5t58.5 76t72.5 63.5t82 44t87 16.5q27 0 52 -6t44.5 -17.5t31 -29t11.5 -40.5q0 -19 -7 -33.5t-13 -24.5q22 -1 31 -4.5t9 -22.5q0 -2 -0.5 -8t-1 -13.5t-1 -14.5
t-0.5 -9q-2 -19 -2 -37v-37q0 -25 1 -43t3.5 -32t5.5 -25.5t8 -23.5q-24 -23 -49.5 -39.5t-59.5 -16.5q-27 0 -42.5 13.5t-23 35t-9.5 48t-1 52.5zM391 254q-13 -4 -31.5 -8.5t-32.5 -4.5q-7 0 -12 2.5t-5 7.5q0 3 1.5 6.5t8.5 15.5q16 26 20.5 43t4.5 31q0 21 -7.5 38.5
t-15.5 17.5q-5 0 -10 -3.5t-14 -13.5q-19 -20 -37 -44t-31.5 -50t-22 -52t-8.5 -51q0 -20 10 -39t27 -19q5 0 10 1.5t7 3.5q9 4 24 15t32 26t35 31.5t34 32.5zM289 563q0 7 7.5 12.5t21.5 14.5q10 6 18 12.5t16 15t18 19.5t24 27q7 7 23.5 14t37 12.5t42.5 8.5t40 3
q6 0 12 -1.5t6 -9.5q0 -22 -26 -47.5t-63 -47t-78 -36t-70 -14.5q-5 0 -17 2.5t-12 14.5z" />
    <glyph glyph-name="acircumflex" unicode="&#xe2;" horiz-adv-x="552" 
d="M360 142q-63 -69 -115 -112t-104 -43q-26 0 -48 10t-38 27.5t-25.5 39.5t-9.5 46q0 37 14 78.5t39 81.5t58.5 76t72.5 63.5t82 44t87 16.5q27 0 52 -6t44.5 -17.5t31 -29t11.5 -40.5q0 -19 -7 -33.5t-13 -24.5q22 -1 31 -4.5t9 -22.5q0 -2 -0.5 -8t-1 -13.5t-1 -14.5
t-0.5 -9q-2 -19 -2 -37v-37q0 -25 1 -43t3.5 -32t5.5 -25.5t8 -23.5q-24 -23 -49.5 -39.5t-59.5 -16.5q-27 0 -42.5 13.5t-23 35t-9.5 48t-1 52.5zM391 254q-13 -4 -31.5 -8.5t-32.5 -4.5q-7 0 -12 2.5t-5 7.5q0 3 1.5 6.5t8.5 15.5q16 26 20.5 43t4.5 31q0 21 -7.5 38.5
t-15.5 17.5q-5 0 -10 -3.5t-14 -13.5q-19 -20 -37 -44t-31.5 -50t-22 -52t-8.5 -51q0 -20 10 -39t27 -19q5 0 10 1.5t7 3.5q9 4 24 15t32 26t35 31.5t34 32.5zM374 596q-19 -9 -45 -19.5t-54 -10.5q-12 0 -23 4t-11 15q0 8 8 15.5t20 14t25 11.5t23 9t27 10t35 11.5t34 9.5
t25 4q8 0 13.5 -3.5t22.5 -20.5q27 -26 59 -48q17 -12 21.5 -15.5t4.5 -8.5t-7 -10t-18 -9t-25 -6.5t-28 -2.5q-40 0 -64 16t-43 34z" />
    <glyph glyph-name="atilde" unicode="&#xe3;" horiz-adv-x="552" 
d="M360 142q-63 -69 -115 -112t-104 -43q-26 0 -48 10t-38 27.5t-25.5 39.5t-9.5 46q0 37 14 78.5t39 81.5t58.5 76t72.5 63.5t82 44t87 16.5q27 0 52 -6t44.5 -17.5t31 -29t11.5 -40.5q0 -19 -7 -33.5t-13 -24.5q22 -1 31 -4.5t9 -22.5q0 -2 -0.5 -8t-1 -13.5t-1 -14.5
t-0.5 -9q-2 -19 -2 -37v-37q0 -25 1 -43t3.5 -32t5.5 -25.5t8 -23.5q-24 -23 -49.5 -39.5t-59.5 -16.5q-27 0 -42.5 13.5t-23 35t-9.5 48t-1 52.5zM391 254q-13 -4 -31.5 -8.5t-32.5 -4.5q-7 0 -12 2.5t-5 7.5q0 3 1.5 6.5t8.5 15.5q16 26 20.5 43t4.5 31q0 21 -7.5 38.5
t-15.5 17.5q-5 0 -10 -3.5t-14 -13.5q-19 -20 -37 -44t-31.5 -50t-22 -52t-8.5 -51q0 -20 10 -39t27 -19q5 0 10 1.5t7 3.5q9 4 24 15t32 26t35 31.5t34 32.5zM578 602q10 -1 12.5 -6.5t2.5 -7.5q0 -10 -17.5 -18t-41.5 -13.5t-48 -8.5t-37 -3q-22 0 -40.5 7t-44.5 19
q-20 9 -30.5 11t-17.5 2q-13 0 -26.5 -3t-24.5 -5q-5 -2 -11 -3t-9 -1q-16 0 -16 13q0 5 4 9.5t10 8t11.5 6t8.5 3.5q10 4 26 9.5t33 10.5t33 8.5t26 3.5q23 0 39 -6.5t48 -24.5q19 -11 32.5 -14t26.5 -3q8 0 22.5 2t28.5 4z" />
    <glyph glyph-name="adieresis" unicode="&#xe4;" horiz-adv-x="552" 
d="M360 142q-63 -69 -115 -112t-104 -43q-26 0 -48 10t-38 27.5t-25.5 39.5t-9.5 46q0 37 14 78.5t39 81.5t58.5 76t72.5 63.5t82 44t87 16.5q27 0 52 -6t44.5 -17.5t31 -29t11.5 -40.5q0 -19 -7 -33.5t-13 -24.5q22 -1 31 -4.5t9 -22.5q0 -2 -0.5 -8t-1 -13.5t-1 -14.5
t-0.5 -9q-2 -19 -2 -37v-37q0 -25 1 -43t3.5 -32t5.5 -25.5t8 -23.5q-24 -23 -49.5 -39.5t-59.5 -16.5q-27 0 -42.5 13.5t-23 35t-9.5 48t-1 52.5zM391 254q-13 -4 -31.5 -8.5t-32.5 -4.5q-7 0 -12 2.5t-5 7.5q0 3 1.5 6.5t8.5 15.5q16 26 20.5 43t4.5 31q0 21 -7.5 38.5
t-15.5 17.5q-5 0 -10 -3.5t-14 -13.5q-19 -20 -37 -44t-31.5 -50t-22 -52t-8.5 -51q0 -20 10 -39t27 -19q5 0 10 1.5t7 3.5q9 4 24 15t32 26t35 31.5t34 32.5zM269 563q-5 0 -12.5 1t-14 4t-11 8.5t-4.5 14.5q0 10 5 23.5t12.5 27t15 24t13.5 14.5q7 5 20.5 9.5t29.5 8.5
t32.5 6t28.5 2q9 0 16 -3t7 -13q0 -9 -5 -26t-13 -34t-19.5 -31.5t-24.5 -20.5q-17 -8 -38.5 -11.5t-37.5 -3.5zM483 545q-8 0 -20.5 1t-24.5 5t-20.5 12t-8.5 22q0 10 3 21.5t7 21.5t8.5 18t8.5 12q10 9 26 13.5t44 4.5q34 0 48.5 -5.5t14.5 -20.5q0 -9 -4 -22t-10 -26.5
t-14 -25t-16 -18.5q-7 -6 -16.5 -9.5t-25.5 -3.5z" />
    <glyph glyph-name="aring" unicode="&#xe5;" horiz-adv-x="552" 
d="M360 142q-63 -69 -115 -112t-104 -43q-26 0 -48 10t-38 27.5t-25.5 39.5t-9.5 46q0 37 14 78.5t39 81.5t58.5 76t72.5 63.5t82 44t87 16.5q27 0 52 -6t44.5 -17.5t31 -29t11.5 -40.5q0 -19 -7 -33.5t-13 -24.5q22 -1 31 -4.5t9 -22.5q0 -2 -0.5 -8t-1 -13.5t-1 -14.5
t-0.5 -9q-2 -19 -2 -37v-37q0 -25 1 -43t3.5 -32t5.5 -25.5t8 -23.5q-24 -23 -49.5 -39.5t-59.5 -16.5q-27 0 -42.5 13.5t-23 35t-9.5 48t-1 52.5zM391 254q-13 -4 -31.5 -8.5t-32.5 -4.5q-7 0 -12 2.5t-5 7.5q0 3 1.5 6.5t8.5 15.5q16 26 20.5 43t4.5 31q0 21 -7.5 38.5
t-15.5 17.5q-5 0 -10 -3.5t-14 -13.5q-19 -20 -37 -44t-31.5 -50t-22 -52t-8.5 -51q0 -20 10 -39t27 -19q5 0 10 1.5t7 3.5q9 4 24 15t32 26t35 31.5t34 32.5zM385 704q4 10 13 22.5t36 12.5q18 0 33.5 -8t26.5 -21t17.5 -29.5t6.5 -34.5q0 -22 -9 -40.5t-24 -32t-35.5 -21
t-43.5 -7.5q-20 0 -39.5 6.5t-34.5 18t-24.5 28t-9.5 37.5q0 25 11 39t25 20.5t28.5 8t22.5 1.5zM380 657q-1 -21 13.5 -41.5t39.5 -20.5q12 0 20.5 7t8.5 18q0 10 -5 20t-13.5 18.5t-19 14t-22.5 5.5q-9 0 -22 -6v-15z" />
    <glyph glyph-name="ae" unicode="&#xe6;" horiz-adv-x="771" 
d="M363 133q-11 -19 -32.5 -45.5t-74.5 -57.5q-30 -17 -64.5 -28t-65.5 -11q-46 0 -76.5 32t-30.5 85q0 41 14.5 78.5t37 69.5t49.5 58.5t51.5 46t44 32t26.5 16.5q28 16 60 30t61.5 24.5t53.5 16t36 5.5q17 0 35.5 -16t34.5 -54q44 30 74.5 45t64.5 15q43 0 71 -29t28 -80
q0 -48 -25.5 -79t-59 -49t-66.5 -25t-47 -7q-6 0 -13 0.5t-15 1.5q-4 -16 -6 -26t-2 -22q0 -29 12.5 -48.5t38.5 -19.5q25 0 48.5 13t39.5 31q15 17 19.5 21t7.5 4q4 0 6 -3.5t2 -8.5q0 -20 -11.5 -47.5t-38 -52.5t-69.5 -43t-105 -18q-37 0 -59 8.5t-33.5 26t-15.5 45
t-6 65.5zM549 269q11 1 30 4.5t38 11.5t32.5 21.5t13.5 35.5q0 14 -7.5 20t-18.5 6q-16 0 -29.5 -8.5t-24 -23t-19 -32t-15.5 -35.5zM372 374q-9 0 -21.5 -2.5t-27 -8t-28.5 -14t-25 -20.5q-15 -15 -27.5 -34t-20.5 -38.5t-12.5 -37.5t-4.5 -32q0 -24 10.5 -40.5t26.5 -16.5
q13 0 38 15t50 41.5t43.5 62t18.5 76.5q0 23 -5.5 36t-14.5 13z" />
    <glyph glyph-name="ccedilla" unicode="&#xe7;" horiz-adv-x="385" 
d="M155 -10q21 -5 33.5 -15.5t12.5 -30.5t-11.5 -36.5t-28.5 -29t-35.5 -19.5t-31.5 -7q-17 0 -28.5 9t-11.5 15t13 7q8 1 16 5.5t19 24.5q2 2 5 8.5t3 8.5q0 4 -5 4q-14 0 -23 2.5t-9 16.5q0 8 5 13t22 13q15 7 23.5 9t12.5 3q-34 7 -55.5 22.5t-34 33.5t-17 36.5
t-4.5 30.5q0 42 12.5 84.5t33.5 82t48.5 74.5t57 60.5t59 40.5t55.5 15q14 0 29 -4.5t27 -13.5t19.5 -22.5t7.5 -32.5q0 -24 -10 -47t-26 -41.5t-35.5 -29.5t-38.5 -11q-5 0 -10.5 1.5t-5.5 9.5q0 3 1.5 6l6.5 13q6 13 11.5 29t5.5 43q0 3 -0.5 12t-5.5 9q-9 0 -22 -22.5
t-25 -55.5t-20 -70t-8 -66t10 -49t26 -20q19 0 47.5 18.5t51.5 43.5q7 8 10 10.5t8 2.5q8 0 9.5 -5t1.5 -13q0 -36 -18.5 -67.5t-47.5 -55t-65 -38t-70 -15.5z" />
    <glyph glyph-name="egrave" unicode="&#xe8;" horiz-adv-x="427" 
d="M336 156q27 19 40 19t25.5 -8t12.5 -16t-14 -23q-23 -23 -52.5 -46t-62.5 -41t-68 -29.5t-70 -11.5q-26 0 -48.5 9.5t-39 26t-26.5 39t-10 48.5q0 34 8.5 68.5t22 67t31 60.5t34.5 48q22 27 48 47t53 33.5t53 20.5t49 7q47 0 72.5 -29.5t25.5 -73.5q0 -46 -22.5 -88.5
t-54.5 -77.5q-44 -48 -75.5 -61.5t-51.5 -13.5q-2 0 -9.5 1t-11.5 4q2 -7 7.5 -18t27.5 -11t44.5 11.5t39.5 22.5zM194 152q15 11 28.5 23t27.5 39q13 25 21.5 50t13 46t6 38t1.5 26v7t-1 10.5t-3.5 9.5t-6.5 4q-8 0 -23.5 -23.5t-30.5 -57.5t-26 -73.5t-11 -70.5
q0 -7 1 -15t3 -13zM294 712q4 0 7 -1.5t8 -6t12 -13.5t18 -23q22 -27 41 -40.5t43 -27.5q1 -1 5.5 -4t9.5 -7t8.5 -8.5t3.5 -9.5q0 -6 -5 -11t-13 -8.5t-17.5 -5.5t-18.5 -2q-26 0 -58.5 8t-61.5 21t-49 29t-20 33q0 10 9.5 23t23.5 25t28.5 20.5t25.5 8.5z" />
    <glyph glyph-name="eacute" unicode="&#xe9;" horiz-adv-x="427" 
d="M336 156q27 19 40 19t25.5 -8t12.5 -16t-14 -23q-23 -23 -52.5 -46t-62.5 -41t-68 -29.5t-70 -11.5q-26 0 -48.5 9.5t-39 26t-26.5 39t-10 48.5q0 34 8.5 68.5t22 67t31 60.5t34.5 48q22 27 48 47t53 33.5t53 20.5t49 7q47 0 72.5 -29.5t25.5 -73.5q0 -46 -22.5 -88.5
t-54.5 -77.5q-44 -48 -75.5 -61.5t-51.5 -13.5q-2 0 -9.5 1t-11.5 4q2 -7 7.5 -18t27.5 -11t44.5 11.5t39.5 22.5zM194 152q15 11 28.5 23t27.5 39q13 25 21.5 50t13 46t6 38t1.5 26v7t-1 10.5t-3.5 9.5t-6.5 4q-8 0 -23.5 -23.5t-30.5 -57.5t-26 -73.5t-11 -70.5
q0 -7 1 -15t3 -13zM236 563q0 7 7.5 12.5t21.5 14.5q10 6 18 12.5t16 15t18 19.5t24 27q7 7 23.5 14t37 12.5t42.5 8.5t40 3q6 0 12 -1.5t6 -9.5q0 -22 -26 -47.5t-63 -47t-78 -36t-70 -14.5q-5 0 -17 2.5t-12 14.5z" />
    <glyph glyph-name="ecircumflex" unicode="&#xea;" horiz-adv-x="427" 
d="M336 156q27 19 40 19t25.5 -8t12.5 -16t-14 -23q-23 -23 -52.5 -46t-62.5 -41t-68 -29.5t-70 -11.5q-26 0 -48.5 9.5t-39 26t-26.5 39t-10 48.5q0 34 8.5 68.5t22 67t31 60.5t34.5 48q22 27 48 47t53 33.5t53 20.5t49 7q47 0 72.5 -29.5t25.5 -73.5q0 -46 -22.5 -88.5
t-54.5 -77.5q-44 -48 -75.5 -61.5t-51.5 -13.5q-2 0 -9.5 1t-11.5 4q2 -7 7.5 -18t27.5 -11t44.5 11.5t39.5 22.5zM194 152q15 11 28.5 23t27.5 39q13 25 21.5 50t13 46t6 38t1.5 26v7t-1 10.5t-3.5 9.5t-6.5 4q-8 0 -23.5 -23.5t-30.5 -57.5t-26 -73.5t-11 -70.5
q0 -7 1 -15t3 -13zM311 596q-19 -9 -45 -19.5t-54 -10.5q-12 0 -23 4t-11 15q0 8 8 15.5t20 14t25 11.5t23 9t27 10t35 11.5t34 9.5t25 4q8 0 13.5 -3.5t22.5 -20.5q27 -26 59 -48q17 -12 21.5 -15.5t4.5 -8.5t-7 -10t-18 -9t-25 -6.5t-28 -2.5q-40 0 -64 16t-43 34z" />
    <glyph glyph-name="edieresis" unicode="&#xeb;" horiz-adv-x="427" 
d="M336 156q27 19 40 19t25.5 -8t12.5 -16t-14 -23q-23 -23 -52.5 -46t-62.5 -41t-68 -29.5t-70 -11.5q-26 0 -48.5 9.5t-39 26t-26.5 39t-10 48.5q0 34 8.5 68.5t22 67t31 60.5t34.5 48q22 27 48 47t53 33.5t53 20.5t49 7q47 0 72.5 -29.5t25.5 -73.5q0 -46 -22.5 -88.5
t-54.5 -77.5q-44 -48 -75.5 -61.5t-51.5 -13.5q-2 0 -9.5 1t-11.5 4q2 -7 7.5 -18t27.5 -11t44.5 11.5t39.5 22.5zM194 152q15 11 28.5 23t27.5 39q13 25 21.5 50t13 46t6 38t1.5 26v7t-1 10.5t-3.5 9.5t-6.5 4q-8 0 -23.5 -23.5t-30.5 -57.5t-26 -73.5t-11 -70.5
q0 -7 1 -15t3 -13zM206 563q-5 0 -12.5 1t-14 4t-11 8.5t-4.5 14.5q0 10 5 23.5t12.5 27t15 24t13.5 14.5q7 5 20.5 9.5t29.5 8.5t32.5 6t28.5 2q9 0 16 -3t7 -13q0 -9 -5 -26t-13 -34t-19.5 -31.5t-24.5 -20.5q-17 -8 -38.5 -11.5t-37.5 -3.5zM420 545q-8 0 -20.5 1
t-24.5 5t-20.5 12t-8.5 22q0 10 3 21.5t7 21.5t8.5 18t8.5 12q10 9 26 13.5t44 4.5q34 0 48.5 -5.5t14.5 -20.5q0 -9 -4 -22t-10 -26.5t-14 -25t-16 -18.5q-7 -6 -16.5 -9.5t-25.5 -3.5z" />
    <glyph glyph-name="igrave" unicode="&#xec;" horiz-adv-x="250" 
d="M227 370q0 -48 -8.5 -98.5t-20 -95t-22.5 -77.5t-17 -46q-13 -30 -24.5 -44t-34.5 -14q-11 0 -24 5.5t-24.5 19.5t-19.5 37t-8 58q0 38 7 80.5t18 83t24.5 76t27.5 59.5q14 23 27 36.5t35 13.5q29 0 46.5 -25t17.5 -69zM197 712q4 0 7 -1.5t8 -6t12 -13.5t18 -23
q22 -27 41 -40.5t43 -27.5q1 -1 5.5 -4t9.5 -7t8.5 -8.5t3.5 -9.5q0 -6 -5 -11t-13 -8.5t-17.5 -5.5t-18.5 -2q-26 0 -58.5 8t-61.5 21t-49 29t-20 33q0 10 9.5 23t23.5 25t28.5 20.5t25.5 8.5z" />
    <glyph glyph-name="iacute" unicode="&#xed;" horiz-adv-x="250" 
d="M227 370q0 -48 -8.5 -98.5t-20 -95t-22.5 -77.5t-17 -46q-13 -30 -24.5 -44t-34.5 -14q-11 0 -24 5.5t-24.5 19.5t-19.5 37t-8 58q0 38 7 80.5t18 83t24.5 76t27.5 59.5q14 23 27 36.5t35 13.5q29 0 46.5 -25t17.5 -69zM119 563q0 7 7.5 12.5t21.5 14.5q10 6 18 12.5
t16 15t18 19.5t24 27q7 7 23.5 14t37 12.5t42.5 8.5t40 3q6 0 12 -1.5t6 -9.5q0 -22 -26 -47.5t-63 -47t-78 -36t-70 -14.5q-5 0 -17 2.5t-12 14.5z" />
    <glyph glyph-name="icircumflex" unicode="&#xee;" horiz-adv-x="250" 
d="M227 370q0 -48 -8.5 -98.5t-20 -95t-22.5 -77.5t-17 -46q-13 -30 -24.5 -44t-34.5 -14q-11 0 -24 5.5t-24.5 19.5t-19.5 37t-8 58q0 38 7 80.5t18 83t24.5 76t27.5 59.5q14 23 27 36.5t35 13.5q29 0 46.5 -25t17.5 -69zM194 596q-19 -9 -45 -19.5t-54 -10.5q-12 0 -23 4
t-11 15q0 8 8 15.5t20 14t25 11.5t23 9t27 10t35 11.5t34 9.5t25 4q8 0 13.5 -3.5t22.5 -20.5q27 -26 59 -48q17 -12 21.5 -15.5t4.5 -8.5t-7 -10t-18 -9t-25 -6.5t-28 -2.5q-40 0 -64 16t-43 34z" />
    <glyph glyph-name="idieresis" unicode="&#xef;" horiz-adv-x="250" 
d="M227 370q0 -48 -8.5 -98.5t-20 -95t-22.5 -77.5t-17 -46q-13 -30 -24.5 -44t-34.5 -14q-11 0 -24 5.5t-24.5 19.5t-19.5 37t-8 58q0 38 7 80.5t18 83t24.5 76t27.5 59.5q14 23 27 36.5t35 13.5q29 0 46.5 -25t17.5 -69zM99 563q-5 0 -12.5 1t-14 4t-11 8.5t-4.5 14.5
q0 10 5 23.5t12.5 27t15 24t13.5 14.5q7 5 20.5 9.5t29.5 8.5t32.5 6t28.5 2q9 0 16 -3t7 -13q0 -9 -5 -26t-13 -34t-19.5 -31.5t-24.5 -20.5q-17 -8 -38.5 -11.5t-37.5 -3.5zM313 545q-8 0 -20.5 1t-24.5 5t-20.5 12t-8.5 22q0 10 3 21.5t7 21.5t8.5 18t8.5 12
q10 9 26 13.5t44 4.5q34 0 48.5 -5.5t14.5 -20.5q0 -9 -4 -22t-10 -26.5t-14 -25t-16 -18.5q-7 -6 -16.5 -9.5t-25.5 -3.5z" />
    <glyph glyph-name="eth" unicode="&#xf0;" horiz-adv-x="542" 
d="M420 671q7 4 17 9.5t20.5 11t20.5 9t16 3.5q8 0 9 -6.5t1 -8.5q0 -13 -7 -20.5t-27 -18.5l-37 -20q12 -18 26.5 -43t27 -56.5t21.5 -70.5t9 -86q0 -79 -28 -149.5t-75.5 -123t-109.5 -83t-130 -30.5q-39 0 -65.5 12.5t-42.5 32t-22.5 44t-6.5 48.5q0 42 10.5 84t29 80
t43.5 71.5t53.5 57.5t59 38t61.5 14q17 0 31 -6t33 -18q-2 15 -5 28t-8 27t-13.5 30.5t-20.5 38.5l-27 -12q-17 -8 -38 -16.5t-30 -8.5t-9 9q0 8 10 16q3 3 12 8.5t18.5 11t17.5 10t9 5.5l17 9q-9 13 -16.5 22.5t-15 18.5t-16.5 18.5t-21 23.5q17 8 36 15t48 7
q37 0 57.5 -11t43.5 -33zM347 244q-8 -6 -19.5 -14.5t-22.5 -8.5q-5 0 -5 7q0 2 1.5 8.5t1.5 8.5q5 23 6 36t1 24q0 40 -10.5 67.5t-25.5 27.5q-12 0 -25 -20.5t-23.5 -52t-17.5 -69t-7 -71.5q0 -57 17 -79t38 -22q22 0 37.5 18t26 43t17 52t10.5 45z" />
    <glyph glyph-name="ntilde" unicode="&#xf1;" horiz-adv-x="510" 
d="M264 292q39 43 65 67t44 35.5t30 14t23 2.5q27 0 44 -16t17 -63q0 -16 -0.5 -29t-1.5 -21l-2 -24q-3 -22 -4 -40.5t-1 -42.5q0 -32 2 -55.5t8 -45.5q5 -20 7 -26t2 -9q0 -8 -10 -16t-24 -14.5t-29 -10.5t-26 -4q-23 0 -40.5 12t-30.5 32.5t-19.5 47.5t-6.5 57
q0 17 1.5 31t4.5 37q-29 -29 -52 -54t-41.5 -47.5t-34 -42.5t-30.5 -39q-20 -25 -31.5 -35t-31.5 -10q-18 0 -31 7.5t-22 19t-13 26t-4 29.5q0 35 9.5 83t23.5 97.5t31.5 93.5t33.5 70q15 25 33 40t44 15q29 0 40 -19.5t11 -47.5q0 -33 -5.5 -68t-13.5 -71zM557 602
q10 -1 12.5 -6.5t2.5 -7.5q0 -10 -17.5 -18t-41.5 -13.5t-48 -8.5t-37 -3q-22 0 -40.5 7t-44.5 19q-20 9 -30.5 11t-17.5 2q-13 0 -26.5 -3t-24.5 -5q-5 -2 -11 -3t-9 -1q-16 0 -16 13q0 5 4 9.5t10 8t11.5 6t8.5 3.5q10 4 26 9.5t33 10.5t33 8.5t26 3.5q23 0 39 -6.5
t48 -24.5q19 -11 32.5 -14t26.5 -3q8 0 22.5 2t28.5 4z" />
    <glyph glyph-name="ograve" unicode="&#xf2;" horiz-adv-x="542" 
d="M312 356l-7 7t-4 7q0 6 12.5 15.5t30.5 19t38.5 16t37.5 6.5q22 0 41.5 -12t34 -33t23 -50t8.5 -62q0 -62 -25.5 -112t-66.5 -85t-92.5 -54t-103.5 -19q-22 0 -57.5 6.5t-69.5 24.5t-59 51.5t-25 87.5q0 59 27 116.5t73 103t106.5 73.5t127.5 28q6 0 16.5 -0.5t21 -2
t18 -5.5t7.5 -10q0 -11 -10.5 -14.5t-36.5 -7.5q-40 -6 -72.5 -29t-56 -56.5t-36.5 -74.5t-13 -83q0 -54 24.5 -87.5t62.5 -33.5q20 0 37.5 10t30.5 28t20.5 42t7.5 53q0 23 -6 43t-14 35.5t-17.5 26.5t-15.5 17zM352 712q4 0 7 -1.5t8 -6t12 -13.5t18 -23q22 -27 41 -40.5
t43 -27.5q1 -1 5.5 -4t9.5 -7t8.5 -8.5t3.5 -9.5q0 -6 -5 -11t-13 -8.5t-17.5 -5.5t-18.5 -2q-26 0 -58.5 8t-61.5 21t-49 29t-20 33q0 10 9.5 23t23.5 25t28.5 20.5t25.5 8.5z" />
    <glyph glyph-name="oacute" unicode="&#xf3;" horiz-adv-x="542" 
d="M312 356l-7 7t-4 7q0 6 12.5 15.5t30.5 19t38.5 16t37.5 6.5q22 0 41.5 -12t34 -33t23 -50t8.5 -62q0 -62 -25.5 -112t-66.5 -85t-92.5 -54t-103.5 -19q-22 0 -57.5 6.5t-69.5 24.5t-59 51.5t-25 87.5q0 59 27 116.5t73 103t106.5 73.5t127.5 28q6 0 16.5 -0.5t21 -2
t18 -5.5t7.5 -10q0 -11 -10.5 -14.5t-36.5 -7.5q-40 -6 -72.5 -29t-56 -56.5t-36.5 -74.5t-13 -83q0 -54 24.5 -87.5t62.5 -33.5q20 0 37.5 10t30.5 28t20.5 42t7.5 53q0 23 -6 43t-14 35.5t-17.5 26.5t-15.5 17zM284 563q0 7 7.5 12.5t21.5 14.5q10 6 18 12.5t16 15
t18 19.5t24 27q7 7 23.5 14t37 12.5t42.5 8.5t40 3q6 0 12 -1.5t6 -9.5q0 -22 -26 -47.5t-63 -47t-78 -36t-70 -14.5q-5 0 -17 2.5t-12 14.5z" />
    <glyph glyph-name="ocircumflex" unicode="&#xf4;" horiz-adv-x="542" 
d="M312 356l-7 7t-4 7q0 6 12.5 15.5t30.5 19t38.5 16t37.5 6.5q22 0 41.5 -12t34 -33t23 -50t8.5 -62q0 -62 -25.5 -112t-66.5 -85t-92.5 -54t-103.5 -19q-22 0 -57.5 6.5t-69.5 24.5t-59 51.5t-25 87.5q0 59 27 116.5t73 103t106.5 73.5t127.5 28q6 0 16.5 -0.5t21 -2
t18 -5.5t7.5 -10q0 -11 -10.5 -14.5t-36.5 -7.5q-40 -6 -72.5 -29t-56 -56.5t-36.5 -74.5t-13 -83q0 -54 24.5 -87.5t62.5 -33.5q20 0 37.5 10t30.5 28t20.5 42t7.5 53q0 23 -6 43t-14 35.5t-17.5 26.5t-15.5 17zM379 596q-19 -9 -45 -19.5t-54 -10.5q-12 0 -23 4t-11 15
q0 8 8 15.5t20 14t25 11.5t23 9t27 10t35 11.5t34 9.5t25 4q8 0 13.5 -3.5t22.5 -20.5q27 -26 59 -48q17 -12 21.5 -15.5t4.5 -8.5t-7 -10t-18 -9t-25 -6.5t-28 -2.5q-40 0 -64 16t-43 34z" />
    <glyph glyph-name="otilde" unicode="&#xf5;" horiz-adv-x="542" 
d="M312 356l-7 7t-4 7q0 6 12.5 15.5t30.5 19t38.5 16t37.5 6.5q22 0 41.5 -12t34 -33t23 -50t8.5 -62q0 -62 -25.5 -112t-66.5 -85t-92.5 -54t-103.5 -19q-22 0 -57.5 6.5t-69.5 24.5t-59 51.5t-25 87.5q0 59 27 116.5t73 103t106.5 73.5t127.5 28q6 0 16.5 -0.5t21 -2
t18 -5.5t7.5 -10q0 -11 -10.5 -14.5t-36.5 -7.5q-40 -6 -72.5 -29t-56 -56.5t-36.5 -74.5t-13 -83q0 -54 24.5 -87.5t62.5 -33.5q20 0 37.5 10t30.5 28t20.5 42t7.5 53q0 23 -6 43t-14 35.5t-17.5 26.5t-15.5 17zM573 602q10 -1 12.5 -6.5t2.5 -7.5q0 -10 -17.5 -18
t-41.5 -13.5t-48 -8.5t-37 -3q-22 0 -40.5 7t-44.5 19q-20 9 -30.5 11t-17.5 2q-13 0 -26.5 -3t-24.5 -5q-5 -2 -11 -3t-9 -1q-16 0 -16 13q0 5 4 9.5t10 8t11.5 6t8.5 3.5q10 4 26 9.5t33 10.5t33 8.5t26 3.5q23 0 39 -6.5t48 -24.5q19 -11 32.5 -14t26.5 -3q8 0 22.5 2
t28.5 4z" />
    <glyph glyph-name="odieresis" unicode="&#xf6;" horiz-adv-x="542" 
d="M312 356l-7 7t-4 7q0 6 12.5 15.5t30.5 19t38.5 16t37.5 6.5q22 0 41.5 -12t34 -33t23 -50t8.5 -62q0 -62 -25.5 -112t-66.5 -85t-92.5 -54t-103.5 -19q-22 0 -57.5 6.5t-69.5 24.5t-59 51.5t-25 87.5q0 59 27 116.5t73 103t106.5 73.5t127.5 28q6 0 16.5 -0.5t21 -2
t18 -5.5t7.5 -10q0 -11 -10.5 -14.5t-36.5 -7.5q-40 -6 -72.5 -29t-56 -56.5t-36.5 -74.5t-13 -83q0 -54 24.5 -87.5t62.5 -33.5q20 0 37.5 10t30.5 28t20.5 42t7.5 53q0 23 -6 43t-14 35.5t-17.5 26.5t-15.5 17zM264 563q-5 0 -12.5 1t-14 4t-11 8.5t-4.5 14.5q0 10 5 23.5
t12.5 27t15 24t13.5 14.5q7 5 20.5 9.5t29.5 8.5t32.5 6t28.5 2q9 0 16 -3t7 -13q0 -9 -5 -26t-13 -34t-19.5 -31.5t-24.5 -20.5q-17 -8 -38.5 -11.5t-37.5 -3.5zM478 545q-8 0 -20.5 1t-24.5 5t-20.5 12t-8.5 22q0 10 3 21.5t7 21.5t8.5 18t8.5 12q10 9 26 13.5t44 4.5
q34 0 48.5 -5.5t14.5 -20.5q0 -9 -4 -22t-10 -26.5t-14 -25t-16 -18.5q-7 -6 -16.5 -9.5t-25.5 -3.5z" />
    <glyph glyph-name="divide" unicode="&#xf7;" horiz-adv-x="667" 
d="M271 532q0 27 18 45t44 18q27 0 45 -18t18 -44t-18 -44.5t-44 -18.5t-44.5 19t-18.5 43zM271 127q0 27 18.5 45.5t45.5 18.5q26 0 43.5 -18t17.5 -44t-17.5 -44.5t-43.5 -18.5t-45 18.5t-19 42.5zM606 383v-105h-545v105h545z" />
    <glyph glyph-name="oslash" unicode="&#xf8;" horiz-adv-x="542" 
d="M355 313q-8 13 -14 19t-11 10l-18 14l-7 7t-4 7q0 6 12.5 15.5t30.5 19t38.5 16t37.5 6.5q14 0 27.5 -5t27.5 -17q17 14 23.5 17.5t12.5 3.5q7 0 10 -6.5t3 -14.5q0 -11 -6 -20t-15 -16q11 -21 17.5 -46t6.5 -53q0 -61 -25 -111t-66 -85t-93 -54.5t-105 -19.5
q-39 0 -77 11.5t-70 33.5q-32 -23 -47 -23q-5 0 -7.5 3t-2.5 6t4.5 9t9.5 11.5t10 9.5t7 5q-14 15 -21.5 31.5t-11 31.5t-4 26.5t-0.5 14.5q0 59 27 116.5t72.5 103t106 73.5t128.5 28q6 0 16.5 -0.5t21 -2t18 -5.5t7.5 -10q0 -11 -10.5 -14.5t-36.5 -7.5q-41 -6 -73.5 -29
t-56 -57t-36 -74.5t-12.5 -80.5q0 -13 1 -20.5t2 -12.5zM213 141q11 -25 31 -39.5t43 -14.5q21 0 39 11t30.5 29t19.5 41.5t7 47.5q0 19 -3 31.5t-5 20.5z" />
    <glyph glyph-name="ugrave" unicode="&#xf9;" horiz-adv-x="531" 
d="M243 289q-5 -9 -12 -24.5t-14 -31.5t-12 -31t-5 -22q0 -10 7 -10q9 0 22 11.5t25 25.5q13 15 29 32t24 25l34 35q6 6 21.5 21t35 31t40 28t37.5 12q13 0 20 -7.5t11 -18t5 -22t1 -19.5q0 -2 -0.5 -13t-1.5 -24.5t-2 -26t-1 -16.5q-2 -19 -3 -42.5t-1 -45.5q0 -39 3 -64
l6 -55q1 -6 -5.5 -13t-18.5 -12t-28 -8.5t-34 -3.5q-29 0 -48.5 8.5t-31.5 23.5t-17 34.5t-5 40.5q0 12 1 23t2 23q-9 -6 -29.5 -22t-43.5 -33.5t-43.5 -33t-28.5 -20.5q-40 -26 -61.5 -37t-38.5 -11q-8 0 -17.5 3.5t-18 13t-14.5 26t-6 42.5q0 44 9.5 92.5t22.5 93
t26.5 79.5t21.5 51q4 8 11.5 21.5t20 26t30 21.5t41.5 9q29 0 49.5 -17t20.5 -53q0 -21 -7.5 -44t-22.5 -58zM346 712q4 0 7 -1.5t8 -6t12 -13.5t18 -23q22 -27 41 -40.5t43 -27.5q1 -1 5.5 -4t9.5 -7t8.5 -8.5t3.5 -9.5q0 -6 -5 -11t-13 -8.5t-17.5 -5.5t-18.5 -2
q-26 0 -58.5 8t-61.5 21t-49 29t-20 33q0 10 9.5 23t23.5 25t28.5 20.5t25.5 8.5z" />
    <glyph glyph-name="uacute" unicode="&#xfa;" horiz-adv-x="531" 
d="M243 289q-5 -9 -12 -24.5t-14 -31.5t-12 -31t-5 -22q0 -10 7 -10q9 0 22 11.5t25 25.5q13 15 29 32t24 25l34 35q6 6 21.5 21t35 31t40 28t37.5 12q13 0 20 -7.5t11 -18t5 -22t1 -19.5q0 -2 -0.5 -13t-1.5 -24.5t-2 -26t-1 -16.5q-2 -19 -3 -42.5t-1 -45.5q0 -39 3 -64
l6 -55q1 -6 -5.5 -13t-18.5 -12t-28 -8.5t-34 -3.5q-29 0 -48.5 8.5t-31.5 23.5t-17 34.5t-5 40.5q0 12 1 23t2 23q-9 -6 -29.5 -22t-43.5 -33.5t-43.5 -33t-28.5 -20.5q-40 -26 -61.5 -37t-38.5 -11q-8 0 -17.5 3.5t-18 13t-14.5 26t-6 42.5q0 44 9.5 92.5t22.5 93
t26.5 79.5t21.5 51q4 8 11.5 21.5t20 26t30 21.5t41.5 9q29 0 49.5 -17t20.5 -53q0 -21 -7.5 -44t-22.5 -58zM278 563q0 7 7.5 12.5t21.5 14.5q10 6 18 12.5t16 15t18 19.5t24 27q7 7 23.5 14t37 12.5t42.5 8.5t40 3q6 0 12 -1.5t6 -9.5q0 -22 -26 -47.5t-63 -47t-78 -36
t-70 -14.5q-5 0 -17 2.5t-12 14.5z" />
    <glyph glyph-name="ucircumflex" unicode="&#xfb;" horiz-adv-x="531" 
d="M243 289q-5 -9 -12 -24.5t-14 -31.5t-12 -31t-5 -22q0 -10 7 -10q9 0 22 11.5t25 25.5q13 15 29 32t24 25l34 35q6 6 21.5 21t35 31t40 28t37.5 12q13 0 20 -7.5t11 -18t5 -22t1 -19.5q0 -2 -0.5 -13t-1.5 -24.5t-2 -26t-1 -16.5q-2 -19 -3 -42.5t-1 -45.5q0 -39 3 -64
l6 -55q1 -6 -5.5 -13t-18.5 -12t-28 -8.5t-34 -3.5q-29 0 -48.5 8.5t-31.5 23.5t-17 34.5t-5 40.5q0 12 1 23t2 23q-9 -6 -29.5 -22t-43.5 -33.5t-43.5 -33t-28.5 -20.5q-40 -26 -61.5 -37t-38.5 -11q-8 0 -17.5 3.5t-18 13t-14.5 26t-6 42.5q0 44 9.5 92.5t22.5 93
t26.5 79.5t21.5 51q4 8 11.5 21.5t20 26t30 21.5t41.5 9q29 0 49.5 -17t20.5 -53q0 -21 -7.5 -44t-22.5 -58zM373 596q-19 -9 -45 -19.5t-54 -10.5q-12 0 -23 4t-11 15q0 8 8 15.5t20 14t25 11.5t23 9t27 10t35 11.5t34 9.5t25 4q8 0 13.5 -3.5t22.5 -20.5q27 -26 59 -48
q17 -12 21.5 -15.5t4.5 -8.5t-7 -10t-18 -9t-25 -6.5t-28 -2.5q-40 0 -64 16t-43 34z" />
    <glyph glyph-name="udieresis" unicode="&#xfc;" horiz-adv-x="531" 
d="M243 289q-5 -9 -12 -24.5t-14 -31.5t-12 -31t-5 -22q0 -10 7 -10q9 0 22 11.5t25 25.5q13 15 29 32t24 25l34 35q6 6 21.5 21t35 31t40 28t37.5 12q13 0 20 -7.5t11 -18t5 -22t1 -19.5q0 -2 -0.5 -13t-1.5 -24.5t-2 -26t-1 -16.5q-2 -19 -3 -42.5t-1 -45.5q0 -39 3 -64
l6 -55q1 -6 -5.5 -13t-18.5 -12t-28 -8.5t-34 -3.5q-29 0 -48.5 8.5t-31.5 23.5t-17 34.5t-5 40.5q0 12 1 23t2 23q-9 -6 -29.5 -22t-43.5 -33.5t-43.5 -33t-28.5 -20.5q-40 -26 -61.5 -37t-38.5 -11q-8 0 -17.5 3.5t-18 13t-14.5 26t-6 42.5q0 44 9.5 92.5t22.5 93
t26.5 79.5t21.5 51q4 8 11.5 21.5t20 26t30 21.5t41.5 9q29 0 49.5 -17t20.5 -53q0 -21 -7.5 -44t-22.5 -58zM258 563q-5 0 -12.5 1t-14 4t-11 8.5t-4.5 14.5q0 10 5 23.5t12.5 27t15 24t13.5 14.5q7 5 20.5 9.5t29.5 8.5t32.5 6t28.5 2q9 0 16 -3t7 -13q0 -9 -5 -26
t-13 -34t-19.5 -31.5t-24.5 -20.5q-17 -8 -38.5 -11.5t-37.5 -3.5zM472 545q-8 0 -20.5 1t-24.5 5t-20.5 12t-8.5 22q0 10 3 21.5t7 21.5t8.5 18t8.5 12q10 9 26 13.5t44 4.5q34 0 48.5 -5.5t14.5 -20.5q0 -9 -4 -22t-10 -26.5t-14 -25t-16 -18.5q-7 -6 -16.5 -9.5
t-25.5 -3.5z" />
    <glyph glyph-name="yacute" unicode="&#xfd;" horiz-adv-x="500" 
d="M169 -5q-16 27 -36.5 63t-38.5 79t-30.5 90t-12.5 95q0 16 1.5 33.5t5.5 33.5t10.5 30t16.5 23q12 11 34.5 19.5t46.5 8.5q13 0 22.5 -4t16.5 -14.5t11 -30t7 -50.5q6 -54 10 -90.5t8.5 -64.5t9.5 -53.5t13 -56.5q11 24 24 54.5t25.5 64t24.5 67.5t21 64q12 40 30 63
t36.5 34.5t33 14t18.5 2.5q15 0 22.5 -8.5t7.5 -18.5q0 -16 -16.5 -65t-43.5 -111.5t-61.5 -129t-71.5 -117.5q-36 -50 -72.5 -86t-70 -59t-63 -34.5t-51.5 -11.5q-4 0 -13 2t-9 16q0 12 3.5 26t10.5 29t18.5 29t26.5 25q16 11 35 20t40 19zM223 563q0 7 7.5 12.5t21.5 14.5
q10 6 18 12.5t16 15t18 19.5t24 27q7 7 23.5 14t37 12.5t42.5 8.5t40 3q6 0 12 -1.5t6 -9.5q0 -22 -26 -47.5t-63 -47t-78 -36t-70 -14.5q-5 0 -17 2.5t-12 14.5z" />
    <glyph glyph-name="thorn" unicode="&#xfe;" horiz-adv-x="552" 
d="M257 321l61 95q5 7 13.5 17t20.5 19t28.5 15.5t36.5 6.5q29 0 52 -13.5t38.5 -37.5t24 -56t8.5 -69q0 -58 -19.5 -113.5t-52.5 -98.5t-77 -69.5t-94 -26.5q-42 0 -62.5 19.5t-35.5 45.5q-27 -86 -44 -134t-29 -71t-21.5 -28t-20.5 -5q-29 0 -43.5 28.5t-14.5 72.5
q0 51 8 108.5t21 116t29.5 115.5t32.5 107q21 64 43 125t45.5 108.5t48 76.5t49.5 29q14 0 23.5 -4.5t13.5 -8.5q5 -5 6 -13.5t1 -11.5q0 -7 -1.5 -14.5t-2.5 -9.5zM221 112q2 -5 5.5 -12t9.5 -13t14.5 -10.5t21.5 -4.5q22 0 41 15t32 40.5t20.5 58t7.5 67.5q0 34 -5.5 59
t-10.5 25t-21.5 -21t-37.5 -53.5t-42 -72.5t-35 -78z" />
    <glyph glyph-name="ydieresis" unicode="&#xff;" horiz-adv-x="500" 
d="M169 -5q-16 27 -36.5 63t-38.5 79t-30.5 90t-12.5 95q0 16 1.5 33.5t5.5 33.5t10.5 30t16.5 23q12 11 34.5 19.5t46.5 8.5q13 0 22.5 -4t16.5 -14.5t11 -30t7 -50.5q6 -54 10 -90.5t8.5 -64.5t9.5 -53.5t13 -56.5q11 24 24 54.5t25.5 64t24.5 67.5t21 64q12 40 30 63
t36.5 34.5t33 14t18.5 2.5q15 0 22.5 -8.5t7.5 -18.5q0 -16 -16.5 -65t-43.5 -111.5t-61.5 -129t-71.5 -117.5q-36 -50 -72.5 -86t-70 -59t-63 -34.5t-51.5 -11.5q-4 0 -13 2t-9 16q0 12 3.5 26t10.5 29t18.5 29t26.5 25q16 11 35 20t40 19zM193 563q-5 0 -12.5 1t-14 4
t-11 8.5t-4.5 14.5q0 10 5 23.5t12.5 27t15 24t13.5 14.5q7 5 20.5 9.5t29.5 8.5t32.5 6t28.5 2q9 0 16 -3t7 -13q0 -9 -5 -26t-13 -34t-19.5 -31.5t-24.5 -20.5q-17 -8 -38.5 -11.5t-37.5 -3.5zM407 545q-8 0 -20.5 1t-24.5 5t-20.5 12t-8.5 22q0 10 3 21.5t7 21.5t8.5 18
t8.5 12q10 9 26 13.5t44 4.5q34 0 48.5 -5.5t14.5 -20.5q0 -9 -4 -22t-10 -26.5t-14 -25t-16 -18.5q-7 -6 -16.5 -9.5t-25.5 -3.5z" />
    <glyph glyph-name="dotlessi" unicode="&#x131;" horiz-adv-x="250" 
d="M227 370q0 -48 -8.5 -98.5t-20 -95t-22.5 -77.5t-17 -46q-13 -30 -24.5 -44t-34.5 -14q-11 0 -24 5.5t-24.5 19.5t-19.5 37t-8 58q0 38 7 80.5t18 83t24.5 76t27.5 59.5q14 23 27 36.5t35 13.5q29 0 46.5 -25t17.5 -69z" />
    <glyph glyph-name="OE" unicode="&#x152;" horiz-adv-x="1031" 
d="M650 219q5 -19 11 -36.5t15 -30.5t22.5 -20.5t34.5 -7.5q29 0 57.5 8t54 19t45.5 22.5t32 18.5q14 8 27 15t22 7q6 0 10.5 -3.5t4.5 -9.5q0 -12 -4 -26.5t-10 -28t-13 -24t-12 -15.5q-32 -29 -72 -50.5t-79.5 -35.5t-75.5 -21t-58 -7q-42 0 -70.5 11.5t-47.5 28t-30 33.5
t-17 29q-17 -19 -30.5 -32t-31.5 -24q-26 -15 -68.5 -31.5t-98.5 -16.5t-101 19t-76.5 53t-48 79.5t-16.5 99.5q0 56 18.5 110t49.5 102t72.5 88.5t88 69.5t95.5 45.5t95 16.5q42 0 85 -19t72 -67q10 -17 14.5 -33t7.5 -33q30 29 51.5 50.5t35.5 32.5q49 38 101 55.5
t90 17.5q45 0 77.5 -25.5t32.5 -80.5q0 -48 -22.5 -86t-55 -64.5t-68 -40.5t-61.5 -14q-25 0 -25 13q0 8 9.5 17t21.5 19q18 15 32.5 34t24.5 40.5t15.5 44.5t5.5 44q0 7 -2 17t-11 10q-11 0 -29 -8.5t-39 -23.5t-43.5 -36.5t-42.5 -47.5q-18 -23 -28.5 -44.5t-17 -40
t-9.5 -34t-5 -27.5h32.5t48 0.5t55.5 1t55 1t46.5 0.5h30.5q3 0 9.5 -0.5t13 -2t11.5 -6t5 -11.5q0 -9 -10 -25t-25 -32.5t-32 -29.5t-30 -16q-7 -1 -16 -1.5t-32 -1.5q-11 0 -35 -0.5t-41 -0.5zM331 77q19 0 36.5 7.5t27.5 16.5q20 19 36.5 50t28.5 67.5t18.5 73.5t6.5 68
q0 42 -10.5 78t-28 62t-40.5 40.5t-49 14.5q-31 0 -58 -22.5t-47.5 -61t-32 -89t-11.5 -106.5q0 -28 3.5 -55.5t12 -52t23 -44.5t37.5 -33q10 -5 22.5 -9.5t24.5 -4.5z" />
    <glyph glyph-name="oe" unicode="&#x153;" horiz-adv-x="802" 
d="M322 329q-5 5 -9.5 13t-4.5 11q0 5 10.5 14t28 17.5t38.5 14.5t42 6q22 0 33.5 -9t25.5 -25q12 12 30 29.5t41 33.5t51 27t60 11q28 0 50 -9.5t37 -25.5t23 -35.5t8 -38.5q0 -33 -12 -62.5t-31 -55t-42.5 -46.5t-46.5 -37q-32 -22 -54 -30t-34 -8l-21 2q8 -12 17.5 -22
t27.5 -10q20 0 40 9.5t31 16.5l20 12q4 2 17 9.5t22 7.5t16.5 -8.5t7.5 -18.5q0 -11 -6.5 -21t-14.5 -18t-17 -14.5t-13 -9.5q-60 -40 -113.5 -58.5t-90.5 -18.5q-23 0 -39.5 7t-28 16.5t-18.5 20.5t-11 19q-17 -17 -34 -29.5t-55 -25.5q-9 -4 -31.5 -9.5t-54.5 -5.5
q-38 0 -73.5 12t-62.5 36t-43.5 60t-16.5 84q0 52 18.5 95.5t48 79.5t66 63t72.5 45t67 27.5t50 9.5q20 0 35.5 -7.5t15.5 -21.5q0 -9 -7.5 -13.5t-23.5 -10.5q-53 -20 -86 -49t-51 -60.5t-24.5 -63t-6.5 -55.5q0 -63 27.5 -97.5t65.5 -34.5q20 0 37 10t29.5 26.5t19.5 38.5
t7 46q0 34 -14 64.5t-29 49.5zM538 148q18 18 42 44.5t41 61.5q14 28 24.5 57t10.5 61q0 6 -1.5 19t-9.5 13t-28 -15.5t-40.5 -43t-36 -65t-15.5 -82.5q0 -17 2.5 -26t10.5 -24z" />
    <glyph glyph-name="Scaron" unicode="&#x160;" horiz-adv-x="510" 
d="M374 448q0 1 1.5 14t1.5 21q0 18 -4.5 38t-11.5 36t-15.5 26.5t-17.5 10.5q-5 0 -11.5 -6t-13.5 -17.5t-11.5 -26.5t-4.5 -33q0 -26 11.5 -50t40.5 -52l44 -41q30 -29 55 -67.5t25 -89.5q0 -43 -17 -83.5t-46 -72t-68.5 -51t-84.5 -19.5q-43 0 -83 17.5t-71.5 42
t-50.5 51.5t-19 47q0 17 13.5 32.5t32 27.5t38.5 19t33 7t22.5 -9.5t17.5 -35.5l8 -30q3 -9 8.5 -23t13.5 -27t18.5 -22t25.5 -9q17 0 29.5 14.5t12.5 40.5t-8.5 47.5t-22 40t-32 36t-37.5 35.5q-18 16 -36.5 34t-34 39t-25 45.5t-9.5 52.5q0 45 20.5 84t55 68.5t80.5 46.5
t97 17q67 0 110.5 -29.5t43.5 -86.5q0 -31 -14 -58.5t-32.5 -48t-38 -32.5t-29.5 -12q-6 0 -9.5 6.5t-2.5 12.5zM402 797q19 9 45 19.5t54 10.5q12 0 23 -4t11 -15q0 -8 -8 -15.5t-20 -14t-25 -11.5t-23 -9l-27.5 -10t-34.5 -11.5t-34 -9.5t-25 -4q-8 0 -13.5 3.5
t-22.5 20.5q-27 26 -59 48q-17 12 -21.5 15.5t-4.5 8.5t7 10t18 9t25 6.5t28 2.5q40 0 64 -16t43 -34z" />
    <glyph glyph-name="scaron" unicode="&#x161;" horiz-adv-x="448" 
d="M146 135q-45 14 -74.5 37t-29.5 61q0 43 24 86t63 77t88 55.5t99 21.5q23 0 44.5 -8.5t37.5 -22.5t25.5 -33.5t9.5 -40.5q0 -22 -10.5 -45t-26.5 -41.5t-36.5 -30t-39.5 -11.5q-12 0 -22.5 5t-10.5 15q0 2 3 16q9 36 10.5 55.5t1.5 24.5q0 20 -6 32t-13 22
q-14 -9 -22.5 -16.5t-18.5 -23.5q-17 -24 -23.5 -48t-6.5 -41q0 -26 20 -37.5t70 -23.5q64 -15 94 -33.5t30 -58.5q0 -29 -14.5 -58.5t-49.5 -64.5q-17 -16 -38.5 -32.5t-48.5 -30t-58.5 -22t-67.5 -8.5q-13 0 -33.5 2.5t-40 10.5t-33.5 23t-14 41q0 22 12 43.5t31 38
t43 26.5t48 10q5 0 12 -1.5t7 -8.5q0 -3 -1.5 -6.5t-8.5 -17.5q-8 -14 -11.5 -29.5t-3.5 -26.5t4 -21t12 -17q11 0 24 6.5t24.5 18t19 27t7.5 33.5q0 21 -14 34.5t-55 26.5zM376 621q19 9 45 19.5t54 10.5q12 0 23 -4t11 -15q0 -8 -8 -15.5t-20 -14t-25 -11.5t-23 -9
l-27.5 -10t-34.5 -11.5t-34 -9.5t-25 -4q-8 0 -13.5 3.5t-22.5 20.5q-27 26 -59 48q-17 12 -21.5 15.5t-4.5 8.5t7 10t18 9t25 6.5t28 2.5q40 0 64 -16t43 -34z" />
    <glyph glyph-name="Ydieresis" unicode="&#x178;" horiz-adv-x="668" 
d="M319 600l2 -24t3 -25l5 -37q1 -8 2.5 -27t4 -40t4.5 -40t3 -26q5 -45 11.5 -80t13.5 -61.5t13 -46t11 -33.5q10 20 24.5 50.5t29 63.5t28 65.5t22.5 57.5l11 32q19 53 35.5 85.5t39.5 58.5q13 14 29.5 28t33 25t33 17.5t29.5 6.5q5 0 10.5 -3t5.5 -11q0 -9 -7.5 -29.5
t-17.5 -44t-20 -45.5t-15 -34q-35 -75 -73.5 -152t-79.5 -149t-82.5 -134.5t-82.5 -106.5q-45 -49 -102 -82t-123 -33q-23 0 -38 9t-15 23q0 11 5.5 27t14 32.5t17.5 30.5t17 22q5 5 12 8t23 4h18q37 0 65 12.5t58 31.5q-12 21 -28 50t-33 63t-33.5 72.5t-29.5 79.5
q-9 28 -17 60.5t-14 66t-9.5 67t-3.5 62.5q0 26 6 44.5t21 29.5q16 12 35.5 21.5t38 16t34 9.5t23.5 3q14 0 21.5 -10.5t9.5 -42.5zM317 739q-5 0 -12.5 1t-14 4t-11 8.5t-4.5 14.5q0 10 5 23.5t12.5 27t15 24t13.5 14.5q7 5 20.5 9.5t29.5 8.5t32.5 6t28.5 2q9 0 16 -3
t7 -13q0 -9 -5 -26t-13 -34t-19.5 -31.5t-24.5 -20.5q-17 -8 -38.5 -11.5t-37.5 -3.5zM531 721q-8 0 -20.5 1t-24.5 5t-20.5 12t-8.5 22q0 10 3 21.5t7 21.5t8.5 18t8.5 12q10 9 26 13.5t44 4.5q34 0 48.5 -5.5t14.5 -20.5q0 -9 -4 -22t-10 -26.5t-14 -25t-16 -18.5
q-7 -6 -16.5 -9.5t-25.5 -3.5z" />
    <glyph glyph-name="Zcaron" unicode="&#x17d;" horiz-adv-x="625" 
d="M290 530q-29 -6 -63 -12.5t-60 -6.5q-23 0 -37 10t-14 26t10.5 35.5t25.5 40.5q11 16 19.5 25t17 13t18.5 5t24 1l250 6h16t29 -1t32 -2.5t25 -4.5q11 -4 19.5 -12t8.5 -17q0 -10 -7.5 -20.5t-21.5 -28.5q-18 -23 -34.5 -45t-33.5 -45l-60 -84q-1 -2 -11 -16t-24.5 -35.5
t-32.5 -48t-34.5 -52.5t-30 -49t-20.5 -38q36 2 85.5 5.5t114.5 17.5q28 6 35.5 7.5t12.5 1.5q16 0 20.5 -7.5t4.5 -13.5q0 -15 -6 -32.5t-15 -34.5t-19.5 -31t-19.5 -22q-26 -22 -60.5 -35t-70 -19.5t-68.5 -8.5t-56 -2q-43 0 -84 5t-73.5 15t-52 25.5t-19.5 36.5q0 6 2 14
t11.5 23.5t29.5 40.5t56 65l119 133q9 10 29.5 33.5t44.5 52t46 57.5t34 50q-12 -2 -20.5 -3t-16.5 -2.5t-17.5 -3.5t-23.5 -5zM464 797q19 9 45 19.5t54 10.5q12 0 23 -4t11 -15q0 -8 -8 -15.5t-20 -14t-25 -11.5t-23 -9l-27.5 -10t-34.5 -11.5t-34 -9.5t-25 -4
q-8 0 -13.5 3.5t-22.5 20.5q-27 26 -59 48q-17 12 -21.5 15.5t-4.5 8.5t7 10t18 9t25 6.5t28 2.5q40 0 64 -16t43 -34z" />
    <glyph glyph-name="zcaron" unicode="&#x17e;" horiz-adv-x="427" 
d="M251 147l-18 -27q20 0 55.5 2t73.5 16l17 6q9 4 16 4q8 0 11 -7.5t3 -18.5q0 -28 -10.5 -55t-33.5 -48.5t-59 -35t-88 -13.5q-35 0 -70 6t-63.5 17t-46.5 26.5t-18 34.5q0 7 1.5 13t9 15.5t22 26t40.5 44.5q51 57 80.5 90t47.5 55t30 39t28 40q-21 -7 -46 -15.5
t-51 -15.5t-51 -11.5t-45 -4.5q-18 0 -27.5 9t-9.5 22q0 19 10 40t27 39q21 23 39 28.5t38 5.5q6 0 23 -0.5t39 -1.5t46.5 -2t46.5 -2t38.5 -2.5t23.5 -2.5q14 -2 28 -9.5t14 -21.5q0 -7 -7.5 -23t-17 -32.5t-18 -29.5t-9.5 -15zM360 621q19 9 45 19.5t54 10.5q12 0 23 -4
t11 -15q0 -8 -8 -15.5t-20 -14t-25 -11.5t-23 -9l-27.5 -10t-34.5 -11.5t-34 -9.5t-25 -4q-8 0 -13.5 3.5t-22.5 20.5q-27 26 -59 48q-17 12 -21.5 15.5t-4.5 8.5t7 10t18 9t25 6.5t28 2.5q40 0 64 -16t43 -34z" />
    <glyph glyph-name="florin" unicode="&#x192;" horiz-adv-x="552" 
d="M142 442h98l8 43q6 31 9.5 50t8 32t10 22t14.5 20q15 17 43 30t82 13q45 0 78 -7t54 -13l-27 -111q-17 5 -36.5 9.5t-40.5 4.5q-27 0 -40 -13t-20 -53l-5 -27h101l-18 -103h-100l-72 -397q-5 -29 -13 -56t-25 -47.5t-46.5 -32.5t-78.5 -12q-35 0 -68.5 5t-66.5 14l28 108
q17 -4 38.5 -7.5t44.5 -3.5q15 0 24 3t15.5 12t10.5 25.5t9 42.5l61 346h-98z" />
    <glyph glyph-name="circumflex" unicode="&#x2c6;" 
d="M274 601q-19 -9 -45 -19.5t-54 -10.5q-12 0 -23 4t-11 15q0 8 8 15.5t20 14t25 11.5t23 9t27 10t35 11.5t34 9.5t25 4q8 0 13.5 -3.5t22.5 -20.5q27 -26 59 -48q17 -12 21.5 -15.5t4.5 -8.5t-7 -10t-18 -9t-25 -6.5t-28 -2.5q-40 0 -64 16t-43 34z" />
    <glyph glyph-name="caron" unicode="&#x2c7;" 
d="M333 626q19 9 45 19.5t54 10.5q12 0 23 -4t11 -15q0 -8 -8 -15.5t-20 -14t-25 -11.5t-23 -9l-27.5 -10t-34.5 -11.5t-34 -9.5t-25 -4q-8 0 -13.5 3.5t-22.5 20.5q-27 26 -59 48q-17 12 -21.5 15.5t-4.5 8.5t7 10t18 9t25 6.5t28 2.5q40 0 64 -16t43 -34z" />
    <glyph glyph-name="ring" unicode="&#x2da;" 
d="M275 709q4 10 13 22.5t36 12.5q18 0 33.5 -8t26.5 -21t17.5 -29.5t6.5 -34.5q0 -22 -9 -40.5t-24 -32t-35.5 -21t-43.5 -7.5q-20 0 -39.5 6.5t-34.5 18t-24.5 28t-9.5 37.5q0 25 11 39t25 20.5t28.5 8t22.5 1.5zM270 662q-1 -21 13.5 -41.5t39.5 -20.5q12 0 20.5 7
t8.5 18q0 10 -5 20t-13.5 18.5t-19 14t-22.5 5.5q-9 0 -22 -6v-15z" />
    <glyph glyph-name="tilde" unicode="&#x2dc;" 
d="M468 607q10 -1 12.5 -6.5t2.5 -7.5q0 -10 -17.5 -18t-41.5 -13.5t-48 -8.5t-37 -3q-22 0 -40.5 7t-44.5 19q-20 9 -30.5 11t-17.5 2q-13 0 -26.5 -3t-24.5 -5q-5 -2 -11 -3t-9 -1q-16 0 -16 13q0 5 4 9.5t10 8t11.5 6t8.5 3.5q10 4 26 9.5t33 10.5t33 8.5t26 3.5
q23 0 39 -6.5t48 -24.5q19 -11 32.5 -14t26.5 -3q8 0 22.5 2t28.5 4z" />
    <glyph glyph-name="endash" unicode="&#x2013;" horiz-adv-x="500" 
d="M506 314v-122h-512v122h512z" />
    <glyph glyph-name="emdash" unicode="&#x2014;" horiz-adv-x="1000" 
d="M1006 314v-121h-1012v121h1012z" />
    <glyph glyph-name="quoteleft" unicode="&#x2018;" horiz-adv-x="208" 
d="M111 466q-13 0 -24.5 7t-20.5 18.5t-14 26.5t-5 30q0 24 12 47.5t27.5 41.5t31.5 29t25 11q6 0 12 -6.5t6 -13.5q0 -4 -2 -8.5t-3 -6.5q-5 -10 -8 -18t-3 -16q0 -15 7.5 -24.5t25.5 -27.5q3 -2 10.5 -11t7.5 -17q0 -11 -11 -22t-25 -20t-28 -14.5t-21 -5.5z" />
    <glyph glyph-name="quoteright" unicode="&#x2019;" horiz-adv-x="208" 
d="M97 677q13 0 24.5 -7t20.5 -18.5t14 -26.5t5 -31q0 -24 -12 -47t-27.5 -41t-31.5 -29t-25 -11q-6 0 -12 6t-6 13q0 4 2 8.5t3 6.5q5 10 8 18t3 17q0 14 -7.5 24t-25.5 27q-3 3 -10.5 11.5t-7.5 17.5q0 10 10.5 21t25 20t28.5 15t21 6z" />
    <glyph glyph-name="quotesinglbase" unicode="&#x201a;" horiz-adv-x="219" 
d="M53 -87q-17 0 -23.5 10.5t-6.5 19.5q0 23 7.5 49.5t18.5 51.5t23 46t22 32q14 14 28.5 20t37.5 6q4 0 12 -0.5t16 -3t13.5 -8t5.5 -15.5q0 -12 -11.5 -46t-31.5 -70t-48.5 -64t-62.5 -28z" />
    <glyph glyph-name="quotedblleft" unicode="&#x201c;" 
d="M232 554q25 36 39.5 57t23 32t13 14.5t9.5 3.5q1 0 3 -1t2 -6q0 -10 -8.5 -35t-25.5 -60l-58 -117q-16 -23 -31.5 -29.5t-22.5 -6.5q-8 0 -15 7t-7 15q0 4 6 15.5t14 24.5t16 25.5t13 18.5zM150 519l-11 -22t-13 -24t-13.5 -21.5t-11.5 -14.5q-15 -14 -33.5 -20.5
t-26.5 -6.5t-12 4.5t-4 9.5q0 6 5.5 16t13 21t15.5 21.5t13 16.5l44 57l74 91q8 10 13 10t7 -3.5t2 -6.5q0 -4 -4.5 -14.5t-10.5 -22.5l-11.5 -23t-8.5 -16z" />
    <glyph glyph-name="quotedblright" unicode="&#x201d;" 
d="M115 515q-24 -36 -39 -57t-23.5 -32.5t-13.5 -14.5t-9 -3q-1 0 -3 1t-2 6q0 10 8.5 35t25.5 60l58 117q16 23 31.5 29.5t22.5 6.5q8 0 15 -7t7 -15q0 -5 -6 -16t-14.5 -24t-16.5 -25.5t-12 -18.5zM197 550l11 22t13 24t13.5 21.5t11.5 14.5q15 14 33.5 20.5t26.5 6.5
t12 -4.5t4 -9.5q0 -6 -5.5 -16t-13 -21t-15.5 -21.5t-13 -16.5l-44 -57l-74 -91q-8 -10 -13 -10t-7 3.5t-2 6.5q0 4 4.5 14t10 22t11.5 23.5t9 16.5z" />
    <glyph glyph-name="quotedblbase" unicode="&#x201e;" 
d="M207 61q3 6 8 16.5t10.5 21t10.5 19.5t7 12q10 12 27.5 17t30.5 5q3 0 6.5 -1t3.5 -7q0 -10 -10.5 -32.5t-26.5 -49.5t-35.5 -55.5t-37.5 -52.5t-32.5 -39t-19.5 -15q-9 0 -9 10t11 34t24 49zM194 141q0 -7 -7 -22t-17.5 -33.5t-23 -39t-23.5 -37t-18.5 -28t-7.5 -12.5
q-6 -9 -14 -20.5t-16 -21.5t-16 -17t-14 -7q-5 0 -7.5 5t-2.5 10q0 13 9.5 39.5t23.5 57t30.5 60t30.5 48.5q7 9 19 20t33 11q5 0 13 -2.5t8 -10.5z" />
    <glyph glyph-name="dagger" unicode="&#x2020;" horiz-adv-x="458" 
d="M359 475q30 -1 48 -4.5t27 -9t11.5 -13.5t2.5 -17q0 -27 -13.5 -42.5t-35 -23.5t-49.5 -11.5t-56 -4.5l-6 -21q-9 -32 -25 -80.5t-35 -100t-39.5 -101t-38.5 -83.5q-10 -19 -19 -28t-24 -9q-19 0 -34.5 16t-15.5 48q0 12 2.5 32.5t6 40.5t7 37t4.5 22q9 45 22 100t26 104
l6 25q-51 6 -79 14.5t-28 36.5q0 17 9.5 28t27 18t42 11.5t54.5 8.5q5 23 11 48.5t13.5 50t15.5 46t18 36.5q10 16 27 24.5t34.5 13t31.5 5.5t17 1q24 0 37.5 -11t13.5 -39q0 -23 -4.5 -47.5t-10.5 -47.5t-12.5 -42t-10.5 -30z" />
    <glyph glyph-name="daggerdbl" unicode="&#x2021;" horiz-adv-x="458" 
d="M344 495l28 -1q26 0 42 -3.5t25 -9.5t12 -14.5t3 -18.5q0 -24 -11.5 -38t-32 -22t-48.5 -11.5t-61 -6.5l-22 -74h28q33 0 51 -4t27 -10.5t11 -15t2 -16.5q0 -26 -14 -40.5t-36.5 -23t-51.5 -11.5t-59 -5q-9 -29 -19.5 -59.5t-22 -60t-24.5 -55.5t-26 -45q-15 -23 -38 -23
q-25 0 -35.5 20t-10.5 43q0 19 3.5 43.5t8 48.5t9 44.5t7.5 30.5l3 14q-23 2 -43.5 4.5t-35.5 8t-24 14.5t-9 24q0 18 12 29.5t31.5 18.5t44.5 10.5t50 6.5l21 83q-47 5 -76 14t-29 37q0 18 12 29.5t30.5 18t41.5 10t45 5.5q10 40 17 65.5t12.5 42t9.5 25.5t7 16
q10 21 26 32.5t33.5 17t32 6.5t21.5 1q9 0 19 -2t17.5 -7.5t12.5 -15.5t5 -27q0 -25 -9 -60t-19 -68z" />
    <glyph glyph-name="bullet" unicode="&#x2022;" horiz-adv-x="354" 
d="M53 347q0 27 9.5 50.5t26.5 40.5t39.5 26.5t48.5 9.5t48.5 -10t39.5 -26.5t26.5 -39.5t9.5 -48q0 -26 -10 -48.5t-26.5 -39.5t-39.5 -26.5t-48 -9.5q-26 0 -48.5 10t-39 27t-26.5 38.5t-10 45.5z" />
    <glyph glyph-name="ellipsis" unicode="&#x2026;" horiz-adv-x="1000" 
d="M462 -1q-3 0 -10.5 0.5t-15 3.5t-13 8.5t-5.5 15.5q0 11 3.5 24.5t8 26.5t10 24t9.5 17q7 10 19 18.5t26.5 14.5t29.5 9t28 3q17 0 24 -10.5t7 -21.5q0 -6 -2.5 -22.5t-8 -34.5t-13.5 -34t-19 -22q-8 -4 -18.5 -7.5t-21.5 -6.5t-21 -4.5t-17 -1.5zM795 -1q-3 0 -10.5 0.5
t-15 3.5t-13 8.5t-5.5 15.5q0 11 3.5 24.5t8 26.5t10 24t10.5 17q7 10 19 18.5t26 14.5t29 9t28 3q17 0 24 -10.5t7 -21.5q0 -6 -2.5 -22.5t-7.5 -34.5t-13 -34t-19 -22q-8 -4 -19 -7.5t-22 -6.5t-21 -4.5t-17 -1.5zM129 -1q-3 0 -10.5 0.5t-15 3.5t-13.5 8.5t-6 15.5
q0 11 3.5 24.5t8.5 26.5t10.5 24t9.5 17q7 10 19 18.5t26 14.5t29 9t28 3q17 0 24 -10.5t7 -21.5q0 -6 -2.5 -22.5t-7.5 -34.5t-13 -34t-19 -22q-16 -8 -40 -14t-38 -6z" />
    <glyph glyph-name="perthousand" unicode="&#x2030;" horiz-adv-x="1281" 
d="M1195 383l4.5 1.5t3.5 0.5q11 0 22 -11t20 -27.5t14.5 -36.5t5.5 -39q0 -45 -13 -88.5t-31.5 -80t-39 -63.5t-35.5 -40q-28 -25 -55 -32t-41 -7q-27 0 -48.5 11.5t-37.5 30.5t-24.5 44t-8.5 52q0 45 14.5 97.5t43.5 97.5t71.5 75.5t98.5 30.5q14 0 21 -4t15 -12z
M1166 373q-19 -4 -28.5 -10.5t-12.5 -9.5q-20 -20 -35 -47t-25 -56t-15.5 -56t-5.5 -46q0 -23 5.5 -45t14 -39.5t19 -28.5t20.5 -11q12 0 25.5 20t24.5 50.5t18 66.5t7 68t-8 58t-28 46q-1 2 -3 4t-2 4q0 4 4.5 8.5t24.5 23.5zM784 383l4.5 1.5t3.5 0.5q11 0 22 -11
t20 -27.5t14.5 -36.5t5.5 -39q0 -45 -13 -88.5t-31.5 -80t-39 -63.5t-35.5 -40q-28 -25 -55 -32t-41 -7q-27 0 -48.5 11.5t-37.5 30.5t-24.5 44t-8.5 52q0 45 14.5 97.5t43.5 97.5t71.5 75.5t98.5 30.5q14 0 21 -4t15 -12zM755 373q-19 -4 -28.5 -10.5t-12.5 -9.5
q-20 -20 -35 -47t-25 -56t-15.5 -56t-5.5 -46q0 -23 5.5 -45t14 -39.5t19 -28.5t20.5 -11q12 0 25.5 20t24.5 50.5t18 66.5t7 68t-8 58t-28 46q-1 2 -3 4t-2 4q0 4 4.5 8.5t24.5 23.5zM288 691l4.5 1.5t3.5 0.5q11 0 22 -11t20 -27.5t14.5 -36.5t5.5 -39q0 -45 -13 -88.5
t-31.5 -80t-39 -63.5t-35.5 -40q-28 -25 -55 -32t-41 -7q-27 0 -48.5 11.5t-37.5 30.5t-24.5 44t-8.5 52q0 45 14.5 97.5t43.5 97.5t71.5 75.5t98.5 30.5q14 0 21 -4t15 -12zM259 681q-19 -4 -28.5 -10.5t-12.5 -9.5q-20 -20 -35 -47t-25 -56t-15.5 -56t-5.5 -46
q0 -23 5.5 -45t14 -39.5t19 -28.5t20.5 -11q12 0 25.5 20t24.5 50.5t18 66.5t7 68t-8 58t-28 46q-1 2 -3 4t-2 4q0 4 4.5 8.5t24.5 23.5zM355 303q43 68 87 133.5t90 131.5q11 16 26 35.5t31 38.5t32 34t30 22q5 2 12 4.5t16 2.5q19 0 36 -16.5t17 -42.5q0 -8 -1 -17
t-8.5 -24.5t-23.5 -41.5t-46 -68l-51 -73q-16 -23 -43 -61t-63.5 -87.5t-81 -107.5t-93.5 -119q-13 -16 -27 -32t-28 -28.5t-28.5 -20.5t-27.5 -8q-14 0 -25.5 10t-11.5 22q0 5 3 14.5t15 31.5q11 20 41 70t72 116z" />
    <glyph glyph-name="guilsinglleft" unicode="&#x2039;" horiz-adv-x="219" 
d="M141 270q-11 -9 -18.5 -16t-13.5 -13.5t-12 -14t-13 -17.5q11 -26 23 -40.5t35 -32.5q8 -5 15 -12t7 -14t-7 -12.5t-15 -5.5q-3 0 -12.5 3t-23 11.5t-29 24t-31.5 41.5q-2 2 -5.5 8.5t-7 13.5t-6.5 14t-3 11q0 10 11 24.5t28.5 30t37.5 30.5t38.5 27.5t32.5 20t18 7.5
q7 0 13 -5.5t6 -10.5q0 -6 -6 -14.5t-15 -17.5t-18.5 -17t-15.5 -13z" />
    <glyph glyph-name="guilsinglright" unicode="&#x203a;" horiz-adv-x="219" 
d="M143 228q0 5 -12 24.5t-41 48.5q-10 10 -17.5 20t-7.5 16q0 5 5 11t10 6q9 0 30.5 -18t43.5 -41t38.5 -46t16.5 -33q0 -8 -11.5 -20.5t-29 -26.5t-38.5 -28.5t-39.5 -26t-32.5 -18.5t-18 -7q-6 0 -11 5t-5 10q0 7 7 16.5t17.5 19.5t23 19.5t23.5 18.5q20 15 34 29t14 21z
" />
    <glyph glyph-name="Euro" unicode="&#x20ac;" horiz-adv-x="687" 
d="M482 310q0 -20 -10 -27t-29 -7h-158q-8 -46 -8 -87q0 -14 1 -28t5.5 -25t14.5 -18t27 -7q25 0 55 10t60.5 25.5t60.5 33t54.5 33t42.5 25.5t26 10q6 0 10.5 -4.5t4.5 -10.5q0 -46 -20.5 -81.5t-58.5 -61.5q-23 -15 -58.5 -32t-74 -31t-76.5 -23t-66 -9q-42 0 -80.5 16.5
t-68 44.5t-47 65.5t-17.5 79.5q0 37 9 75h-38q-10 0 -19.5 1.5t-9.5 12.5q0 22 10 28t30 6h41q10 27 24 54h-66q-10 0 -19.5 1.5t-9.5 12.5q0 22 10 28t30 6h83q31 48 69 89t80 70q22 16 48.5 31.5t55 27.5t57.5 19.5t57 7.5q23 0 46 -7.5t41.5 -21t30 -33.5t11.5 -45
q0 -20 -9.5 -43t-25 -42.5t-35.5 -32.5t-41 -13q-8 0 -10 7.5t-2 13.5q0 14 3 27.5t3 27.5q0 4 -2.5 17t-8.5 27t-16.5 25.5t-26.5 11.5q-5 0 -11.5 -4t-13 -9.5t-12.5 -11t-9 -8.5q-54 -56 -91 -131h127q8 0 19 -1t11 -13q0 -20 -10 -27t-29 -7h-139q-11 -27 -18 -54h156
q8 0 19 -1t11 -13z" />
    <glyph glyph-name="trademark" unicode="&#x2122;" horiz-adv-x="979" 
d="M195 592h-131v82h358v-82h-129v-317h-98v317zM469 674h150l64 -247l66 247h148v-399h-93v300l-80 -300h-82l-80 300v-300h-93v399z" />
    </font>
</defs>
</svg>
